<?xml  version="1.0" encoding="UTF-8"?>
<!DOCTYPE svg PUBLIC "-//W3C//DTD SVG 1.0//EN" "http://www.w3.org/TR/2001/REC-SVG-20010904/DTD/svg10.dtd" >
<svg xmlns="http://www.w3.org/2000/svg" >
<metadata>
<version>1.0</version>
<id><![CDATA[Century Gothic W01 Bold Italic]]></id>
<vendor>Monotype Imaging Inc.</vendor>
<credits>
<name>Fonts.com WebFonts</name>
<URL>http://webfonts.fonts.com</URL>
<role>Home of the Web fonts</role>
</credits>
<license>
<URL>http://webfonts.fonts.com/Legal</URL>
</license>
<copyright><![CDATA[Typeface © The Monotype Corporation plc. Data © The Monotype Corporation plc / Type Solutions Inc. 1990-91 All Rights Reserved]]></copyright>
<trademark><![CDATA[Century Gothic is a trademark of The Monotype Corporation plc.]]></trademark>
<licensee>
<name></name>
</licensee>
</metadata>
<defs >
<font horiz-adv-x="1154" id="d5c40f0a-3098-4a2b-8cbb-84524c2a29bc">
<font-face font-family="" panose-1="2 11 6 2 2 2 2 9 2 4" ascent="2060" descent="-451" units-per-em="2048" alphabetic="0">
</font-face>
<missing-glyph horiz-adv-x="573" />

<glyph unicode="&#xA;" />
<glyph unicode="&#xD;" />
<glyph unicode=" " horiz-adv-x="573" />
<glyph unicode="!" horiz-adv-x="573" d="M260 1508H535L384 434H109L260 1508ZM214 308Q283 308 332 259T382 140Q382 71 333 22T214 -28Q144 -28 95 21T46 140Q46 210 95 259T214 308Z"  />
<glyph unicode="&quot;" horiz-adv-x="737" d="M706 1004H550L495 1508H762L706 1004ZM295 1004H139L84 1508H351L295 1004Z"  />
<glyph unicode="#" horiz-adv-x="1229" d="M1110 678V479H879L808 0H607L677 479H486L416 0H216L286 479H61V678H317L347 866H124V1065H375L440 1508H635L573 1065H764L829 1508H1030L965 1065H1167V866H936L910 678H1110ZM736 866H542L516 678H705L736 866Z"  />
<glyph unicode="$" horiz-adv-x="1147" d="M619 1607H794L776 1488Q866 1464 932 1419T1070 1285L878 1135Q808 1213 751 1242T635 1271Q560 1271 507 1225T453 1119Q453 1088 463 1065Q478 1035 509 1009Q522 997 628 931Q783 834 837 788Q931 708 976 620T1021 426Q1021 308 963 204T809 39T563 -34L526 -297H352L388 -34Q246 -7 155 65T-15 287L225 408Q333 198 516 198Q620 198 688 260T756 409Q756 479 710 538Q664 596 496 695Q314 803 251 897Q187 990 187 1101Q187 1245 294 1368T604 1502L619 1607Z"  />
<glyph unicode="%" horiz-adv-x="1761" d="M1465 1536H1666L267 -100H65L1262 1305Q1193 1292 1125 1285T988 1278Q893 1278 784 1290Q797 1235 797 1195Q797 1095 744 1002T603 859T407 808Q270 808 183 893T96 1111Q96 1290 243 1413Q355 1508 474 1508Q517 1508 643 1484Q864 1442 1014 1442Q1132 1442 1245 1465T1465 1536ZM471 1331Q389 1331 333 1272T276 1126Q276 1065 317 1022T421 979Q499 979 556 1038T613 1182Q613 1249 574 1290T471 1331ZM1348 660Q1479 660 1565 573T1652 351Q1652 250 1600 158T1458 14T1263 -37Q1115 -37 1034 55T952 271Q952 367 1006 460T1153 607T1348 660ZM1325 488Q1245 488 1189 430T1133 287Q1133 218 1175 176T1281 134Q1356 134 1412 195T1469 340Q1469 408 1430 448T1325 488Z"  />
<glyph unicode="&amp;" horiz-adv-x="1393" d="M1133 588L1279 390Q1224 342 1163 299L1105 256L1167 180Q1263 62 1309 0H982Q929 54 883 111Q777 40 658 2T434 -37Q286 -37 176 69T65 319Q65 441 140 545T424 771Q370 875 353 934T335 1053Q335 1201 448 1306T728 1411Q868 1411 959 1322T1051 1098Q1051 989 987 889T778 688Q876 542 948 456Q1055 527 1133 588ZM645 897Q796 1000 796 1086Q796 1115 771 1136T707 1158Q659 1158 626 1127T593 1054Q593 985 645 897ZM556 550Q478 508 400 450Q360 421 340 384Q325 356 325 327Q325 277 360 245T452 212Q501 212 573 238Q590 245 727 313Q708 336 671 389L556 550Z"  />
<glyph unicode="&apos;" horiz-adv-x="451" d="M357 1004H201L146 1508H412L357 1004Z"  />
<glyph unicode="(" horiz-adv-x="778" d="M614 1536H961Q451 1047 451 286Q451 90 500 -65T683 -426H338Q245 -244 206 -83T166 259Q166 493 217 728T361 1151T614 1536Z"  />
<glyph unicode=")" horiz-adv-x="778" d="M123 -426H-224Q286 63 286 824Q286 1020 237 1175T54 1536H399Q492 1353 531 1193T571 850Q571 616 520 382T376 -41T123 -426Z"  />
<glyph unicode="*" horiz-adv-x="901" d="M386 1508H640L561 1207L787 1420L904 1200L599 1122L904 1035L772 818L554 1035L631 735H386L463 1035L240 818L107 1035L413 1122L107 1207L240 1430L463 1207L386 1508Z"  />
<glyph unicode="+" horiz-adv-x="1229" d="M490 860V1235H740V860H1114V610H740V236H490V610H115V860H490Z"  />
<glyph unicode="&#x2c;" horiz-adv-x="573" d="M147 267L354 144L78 -216L-51 -138L147 267Z"  />
<glyph unicode="-" horiz-adv-x="860" d="M156 663H695L664 420H124L156 663Z"  />
<glyph unicode="." horiz-adv-x="573" d="M205 308Q274 308 323 259T373 140Q373 71 324 22T205 -28Q135 -28 86 21T37 140Q37 210 86 259T205 308Z"  />
<glyph unicode="/" horiz-adv-x="942" d="M44 -262L705 1513H899L237 -262H44Z"  />
<glyph unicode="0" horiz-adv-x="1147" d="M669 1508Q840 1508 955 1359T1070 922Q1070 627 978 396T750 64T461 -37Q351 -37 265 23T126 202T74 514Q74 836 166 1084Q249 1304 383 1406T669 1508ZM643 1248Q582 1248 530 1197Q454 1121 395 924T336 513Q336 337 377 275T490 212Q555 212 624 277T750 533T808 951Q808 1111 762 1179T643 1248Z"  />
<glyph unicode="1" horiz-adv-x="1147" d="M412 1471H847L649 0H379L543 1214H325L412 1471Z"  />
<glyph unicode="2" horiz-adv-x="1147" d="M422 1021H154Q160 1170 220 1281T380 1450T607 1508Q791 1508 911 1390T1031 1095Q1031 955 937 792T476 251H971L938 0H29L54 193Q433 578 546 708Q698 885 734 969Q763 1034 763 1095Q763 1164 718 1209T606 1255Q536 1255 489 1203T422 1021Z"  />
<glyph unicode="3" horiz-adv-x="1147" d="M474 1116H220Q242 1296 361 1402T652 1508Q759 1508 845 1460T982 1322T1034 1138Q1034 1042 978 951T806 790Q1005 668 1005 450Q1005 249 858 106T500 -37Q308 -37 183 96T57 449H317Q328 337 370 286Q428 217 522 217Q621 217 679 291T737 467Q737 525 706 575T623 652T465 685L498 915Q625 915 691 972T758 1118Q758 1178 721 1216T626 1254Q568 1254 527 1218T474 1116Z"  />
<glyph unicode="4" horiz-adv-x="1147" d="M795 1508H1040L911 522H1056L1024 283H879L841 0H590L626 283H8L40 522L795 1508ZM720 1041L330 522H656L720 1041Z"  />
<glyph unicode="5" horiz-adv-x="1147" d="M406 1471H1109L1075 1220H600L516 934Q580 965 651 965Q817 965 918 856T1019 547Q1019 285 872 124T504 -37Q349 -37 228 41T32 274L274 384Q337 289 393 254T517 218Q614 218 678 294T742 498Q742 593 693 651T575 709Q481 709 424 621L179 689L406 1471Z"  />
<glyph unicode="6" horiz-adv-x="1147" d="M675 1508L886 1366L532 872Q585 886 628 886Q797 886 917 761T1037 451Q1037 242 896 103T536 -37Q337 -37 205 95T73 420Q73 497 93 569Q123 672 175 767Q268 936 367 1075L675 1508ZM559 651Q465 651 398 585T331 426Q331 339 392 279T544 218Q639 218 703 283T768 445Q768 533 709 592T559 651Z"  />
<glyph unicode="7" horiz-adv-x="1147" d="M237 1471H1155L1139 1291L396 -37L171 87L810 1216H205L237 1471Z"  />
<glyph unicode="8" horiz-adv-x="1147" d="M789 792Q899 750 961 660T1023 444Q1023 306 959 197T775 25T502 -37Q302 -37 172 87T41 385Q41 477 81 567T186 718T361 819Q290 861 254 916Q196 1004 196 1107Q196 1211 253 1305T415 1453T645 1508Q826 1508 942 1400T1058 1143Q1058 1033 992 941T789 792ZM639 1251Q564 1251 514 1202T464 1082Q464 1017 503 975T608 933Q680 933 730 982T780 1102Q780 1171 742 1211T639 1251ZM556 678Q456 678 386 604T315 418Q315 332 374 274T522 215Q622 215 690 285T758 458Q758 551 698 614T556 678Z"  />
<glyph unicode="9" horiz-adv-x="1147" d="M483 -37L272 104L626 598Q573 585 530 585Q361 585 241 710T121 1020Q121 1229 262 1368T622 1508Q821 1508 953 1376T1085 1051Q1085 974 1065 902Q1035 798 983 704Q890 534 791 395L483 -37ZM599 820Q693 820 760 886T827 1044Q827 1132 766 1192T614 1252Q519 1252 455 1187T390 1025Q390 938 449 879T599 820Z"  />
<glyph unicode=":" horiz-adv-x="573" d="M319 1116Q388 1116 437 1067T487 949Q487 880 438 831T319 782Q249 782 200 831T151 949Q151 1019 199 1067T319 1116ZM205 308Q274 308 323 259T373 140Q373 71 324 22T205 -28Q135 -28 86 21T37 140Q37 210 86 259T205 308Z"  />
<glyph unicode=";" horiz-adv-x="573" d="M320 1116Q389 1116 438 1067T488 949Q488 880 439 831T320 782Q250 782 201 831T152 949Q152 1019 200 1067T320 1116ZM147 267L354 144L78 -216L-51 -138L147 267Z"  />
<glyph unicode="&lt;" horiz-adv-x="1229" d="M1114 366V116L115 624V846L1114 1354V1105L402 735L1114 366Z"  />
<glyph unicode="=" horiz-adv-x="1229" d="M115 1074H1114V824H115V1074ZM115 646H1114V396H115V646Z"  />
<glyph unicode="&gt;" horiz-adv-x="1229" d="M115 1105V1354L1114 846V624L115 116V366L828 735L115 1105Z"  />
<glyph unicode="?" horiz-adv-x="1147" d="M347 1098H86Q100 1224 170 1324T357 1480T620 1536Q813 1536 935 1421T1057 1144Q1057 940 815 762Q705 682 678 651T631 567T604 436H347Q352 617 407 723T611 930Q730 1010 761 1053T793 1142Q793 1200 739 1244T594 1288Q395 1288 347 1098ZM425 308Q494 308 543 259T592 140Q592 71 543 22T425 -28Q355 -28 306 21T257 140Q257 210 306 259T425 308Z"  />
<glyph unicode="@" horiz-adv-x="1515" d="M1252 301H1443Q1334 166 1250 105T1053 8T820 -27Q606 -27 423 77T136 362T32 754Q32 968 136 1152T421 1438T818 1540Q1118 1540 1324 1347T1531 898Q1531 710 1445 575T1209 363Q1095 305 1018 305Q960 305 925 336Q898 358 896 412Q808 315 682 315Q540 315 446 416T351 685Q351 870 467 1015T775 1161Q854 1161 916 1129T1022 1030L1043 1135H1239L1140 552Q1130 490 1130 482Q1130 471 1140 462T1165 452Q1200 452 1259 500T1356 640T1394 841Q1394 1003 1323 1127T1119 1322T814 1393Q633 1393 489 1313T262 1085T179 760Q179 579 263 432T498 203T836 121Q946 121 1044 162T1252 301ZM763 526Q850 526 907 597T964 759Q964 837 918 886T801 936Q719 936 658 869T597 705Q597 624 643 575T763 526Z"  />
<glyph unicode="A" horiz-adv-x="1515" d="M770 1471H1003L1369 0H1101L1023 313H442L273 0H-24L770 1471ZM956 573L838 1056L579 573H956Z"  />
<glyph unicode="B" horiz-adv-x="1188" d="M266 1471H496Q706 1471 808 1426T972 1286T1035 1081Q1035 989 991 908T864 771Q1061 634 1061 407Q1061 289 999 191T844 47T578 0H70L266 1471ZM465 887H515Q627 887 667 903T735 965T763 1065Q763 1116 738 1153T673 1203T508 1216L465 887ZM383 261L549 255Q674 255 731 304T788 438Q788 500 753 549T658 618T432 639L383 261Z"  />
<glyph unicode="C" horiz-adv-x="1597" d="M1524 1281L1323 1095Q1258 1170 1164 1210T960 1251Q806 1251 665 1172T446 963T367 686Q367 486 505 354T859 221Q1090 221 1259 355L1422 140Q1171 -37 841 -37Q609 -37 447 51T186 309T87 679Q87 892 203 1087T519 1395T953 1508Q1283 1508 1524 1281Z"  />
<glyph unicode="D" horiz-adv-x="1434" d="M267 1471H501Q830 1471 990 1394T1251 1150T1352 767Q1352 544 1246 358T977 86T527 0H70L267 1471ZM510 1212L383 257H474Q684 257 778 292Q910 342 990 463T1070 762Q1070 908 1014 1006T854 1158T580 1212H510Z"  />
<glyph unicode="E" horiz-adv-x="1065" d="M245 1471H1044L1010 1210H490L448 906H970L937 647H415L363 257H888L853 0H52L245 1471Z"  />
<glyph unicode="F" horiz-adv-x="983" d="M247 1471H972L939 1210H492L450 906H898L865 647H416L332 0H54L247 1471Z"  />
<glyph unicode="G" horiz-adv-x="1720" d="M1541 1197L1311 1048Q1211 1162 1118 1206T907 1251Q652 1251 492 1046Q365 883 365 684Q365 488 495 355T817 222Q959 222 1075 290T1266 496H807L841 757H1585Q1569 392 1357 178T815 -37Q457 -37 252 211Q87 410 87 685Q87 1020 328 1264T904 1508Q1028 1508 1146 1472T1359 1371T1541 1197Z"  />
<glyph unicode="H" horiz-adv-x="1393" d="M266 1471H543L469 916H972L1047 1471H1325L1125 0H849L940 668H433L343 0H68L266 1471Z"  />
<glyph unicode="I" horiz-adv-x="573" d="M256 1471H526L323 0H58L256 1471Z"  />
<glyph unicode="J" horiz-adv-x="983" d="M643 1471H919L781 433Q753 227 711 142T589 10T402 -37Q269 -37 149 41T-47 263L172 396Q230 306 287 266T388 225Q435 225 461 261Q487 297 500 418L643 1471Z"  />
<glyph unicode="K" horiz-adv-x="1270" d="M270 1471H547L479 971L953 1471H1295L654 798L1161 0H852L437 654L348 0H74L270 1471Z"  />
<glyph unicode="L" horiz-adv-x="901" d="M271 1471H548L382 253H839L807 0H72L271 1471Z"  />
<glyph unicode="M" horiz-adv-x="1843" d="M376 1471H626L875 446L1383 1471H1621L1641 0H1383L1371 880L935 0H724L500 924L265 0H1L376 1471Z"  />
<glyph unicode="N" horiz-adv-x="1515" d="M266 1471H508L1041 471L1176 1471H1445L1247 0H1011L471 1011L336 0H71L266 1471Z"  />
<glyph unicode="O" horiz-adv-x="1720" d="M945 1508Q1248 1508 1445 1313T1642 818Q1642 588 1526 385T1216 72T771 -37Q457 -37 270 149T82 639Q82 984 306 1232Q556 1508 945 1508ZM935 1247Q777 1247 647 1171T436 951T356 654Q356 473 467 347T786 221Q1027 221 1195 391T1364 804Q1364 1005 1246 1126T935 1247Z"  />
<glyph unicode="P" horiz-adv-x="1147" d="M269 1471H528Q764 1471 861 1430Q981 1379 1043 1288T1105 1075Q1105 941 1033 833T838 675T432 621L348 0H71L269 1471ZM465 881Q691 882 760 928T829 1065Q829 1116 802 1151T722 1200T512 1214L465 881Z"  />
<glyph unicode="Q" horiz-adv-x="1720" d="M1408 224L1666 -69H1316L1199 63Q1003 -37 772 -37Q457 -37 270 149T82 639Q82 878 196 1079T506 1394T938 1508Q1247 1508 1444 1313T1642 818Q1642 656 1580 498T1408 224ZM1228 427Q1364 588 1364 804Q1364 1006 1246 1126T931 1247Q776 1247 646 1170T436 950T356 654Q356 472 467 347T785 221Q912 221 1017 267L797 514H1151L1228 427Z"  />
<glyph unicode="R" horiz-adv-x="1188" d="M281 1471H538Q776 1471 873 1430Q994 1379 1055 1289T1117 1074Q1117 921 1026 812T751 659L1072 0H786L472 642H446L361 0H85L281 1471ZM478 883Q705 884 773 929T842 1066Q842 1118 815 1153T735 1202T524 1216L478 883Z"  />
<glyph unicode="S" horiz-adv-x="1065" d="M1017 1266L816 1088Q692 1248 585 1248Q532 1248 497 1217T462 1141Q462 1100 494 1050T688 829Q774 738 801 700Q866 612 894 536T923 380Q923 203 797 83T474 -37Q174 -37 -15 248L197 419Q325 224 474 224Q545 224 593 270T642 381Q642 432 613 485T444 685Q297 840 251 919Q189 1026 189 1129Q189 1265 278 1373Q390 1508 580 1508Q841 1508 1017 1266Z"  />
<glyph unicode="T" horiz-adv-x="860" d="M79 1471H977L945 1209H632L473 0H199L358 1209H45L79 1471Z"  />
<glyph unicode="U" horiz-adv-x="1311" d="M260 1471H535L413 563Q397 444 397 395Q397 312 448 266T598 219Q677 219 736 254Q780 280 806 340T858 581L981 1471H1259L1139 593Q1102 322 1042 204T869 25T592 -37Q372 -37 249 80T126 400Q126 488 150 660L260 1471Z"  />
<glyph unicode="V" horiz-adv-x="1434" d="M105 1471H375L638 409L1207 1471H1504L717 0H470L105 1471Z"  />
<glyph unicode="W" horiz-adv-x="1843" d="M132 1471H384L468 518L919 1471H1127L1302 543L1629 1471H1896L1376 0H1150L965 974L504 0H263L132 1471Z"  />
<glyph unicode="X" horiz-adv-x="1393" d="M250 1471H534L741 1016L1062 1471H1382L864 743L1202 0H916L692 499L338 0H16L568 772L250 1471Z"  />
<glyph unicode="Y" horiz-adv-x="1270" d="M66 1471H345L575 882L993 1471H1310L682 588L603 0H327L408 588L66 1471Z"  />
<glyph unicode="Z" horiz-adv-x="1024" d="M183 1471H1014L430 256H893L859 0H18L603 1212H147L183 1471Z"  />
<glyph unicode="[" horiz-adv-x="655" d="M316 1508H753L718 1253H557L362 -144H523L489 -398H50L316 1508Z"  />
<glyph unicode="\" horiz-adv-x="1311" d="M1082 -262H889L228 1513H421L1082 -262Z"  />
<glyph unicode="]" horiz-adv-x="655" d="M311 -398H-126L-91 -143H70L266 1254H104L139 1508H577L311 -398Z"  />
<glyph unicode="^" horiz-adv-x="1229" d="M497 1471H729L1119 366H877L615 1114L352 366H109L497 1471Z"  />
<glyph unicode="_" horiz-adv-x="1024" d="M-12 -154H1036V-256H-12V-154Z"  />
<glyph unicode="`" horiz-adv-x="860" d="M216 1677H538L720 1285H525L216 1677Z"  />
<glyph unicode="a" horiz-adv-x="1352" d="M984 1088H1251L1109 0H845L860 117Q773 36 698 4T528 -28Q312 -28 185 131T57 501Q57 662 138 807T355 1034T641 1116Q741 1116 825 1070T965 936L984 1088ZM590 210Q688 210 761 254T883 392T933 584Q933 713 859 791T662 870Q520 870 421 765T322 494Q322 366 397 288T590 210Z"  />
<glyph unicode="b" horiz-adv-x="1352" d="M310 0H43L240 1508H504L434 971Q521 1053 596 1084T766 1116Q982 1116 1109 957T1237 588Q1237 427 1156 281T939 54T654 -28Q553 -28 469 18T330 152L310 0ZM704 879Q606 879 533 835T411 696T361 504Q361 375 435 297T632 218Q774 218 873 323T972 594Q972 722 897 800T704 879Z"  />
<glyph unicode="c" horiz-adv-x="1311" d="M1187 863L961 740Q865 862 703 862Q594 862 510 816T376 681T326 495Q326 369 405 293T622 217Q813 217 915 346L1125 198Q1036 92 904 32T608 -28Q354 -28 208 112T61 482Q61 745 242 930T708 1116Q1029 1116 1187 863Z"  />
<glyph unicode="d" horiz-adv-x="1352" d="M1039 1508H1306L1109 0H845L860 117Q773 36 698 4T528 -28Q312 -28 185 131T57 501Q57 662 138 807T355 1034T641 1116Q741 1116 825 1070T965 936L1039 1508ZM590 210Q688 210 761 254T883 392T933 584Q933 713 859 791T662 870Q520 870 421 765T322 494Q322 366 397 288T590 210Z"  />
<glyph unicode="e" horiz-adv-x="1311" d="M861 319L1096 197Q1017 93 887 33T597 -28Q348 -28 205 112T61 484Q61 749 240 932T674 1116Q827 1116 946 1049T1135 854T1204 576Q1204 529 1194 466H326Q330 353 400 286T595 219Q745 219 861 319ZM929 662Q899 762 829 813T660 865Q562 865 483 812T363 662H929Z"  />
<glyph unicode="f" horiz-adv-x="573" d="M56 1088H172Q200 1301 234 1379T328 1497T474 1536Q587 1536 683 1471L653 1253Q598 1302 542 1302Q500 1302 481 1272T439 1088H605L576 858H410L290 0H24L141 858H27L56 1088Z"  />
<glyph unicode="g" horiz-adv-x="1352" d="M984 1088H1251L1132 217Q1097 -41 1060 -125Q1002 -255 865 -340T521 -426Q349 -426 222 -360T31 -188L260 -68Q363 -177 528 -177Q624 -177 694 -142T803 -48T858 129Q713 0 529 0Q401 0 293 64T122 246T60 506Q60 667 141 808T361 1033T653 1116Q745 1116 820 1080T967 959L984 1088ZM667 864Q522 864 423 762T323 511Q323 390 397 317T595 244Q688 244 767 289T892 418T938 599Q938 713 862 788T667 864Z"  />
<glyph unicode="h" horiz-adv-x="1229" d="M250 1508H515L443 978Q596 1116 761 1116Q902 1116 992 1027T1082 801Q1082 737 1065 610L984 0H719L798 595Q810 687 810 733Q810 799 773 834T666 870Q599 870 532 824T429 695T363 385L312 0H46L250 1508Z"  />
<glyph unicode="i" horiz-adv-x="491" d="M324 1533Q392 1533 440 1485T489 1368Q489 1300 441 1252T324 1203Q256 1203 208 1251T159 1368Q159 1436 207 1484T324 1533ZM158 1088H422L276 0H10L158 1088Z"  />
<glyph unicode="j" horiz-adv-x="532" d="M348 1533Q417 1533 465 1485T513 1368Q513 1300 465 1252T348 1203Q280 1203 232 1251T183 1368Q183 1436 231 1484T348 1533ZM178 1088H444L314 125Q277 -147 239 -239T130 -378T-31 -426Q-101 -426 -195 -387L-163 -147Q-118 -176 -80 -176Q-35 -176 -12 -138Q21 -83 44 90L178 1088Z"  />
<glyph unicode="k" horiz-adv-x="1188" d="M246 1508H509L402 709L832 1088H1198L648 603L1129 0H809L379 536L308 0H46L246 1508Z"  />
<glyph unicode="l" horiz-adv-x="491" d="M214 1508H480L280 0H14L214 1508Z"  />
<glyph unicode="m" horiz-adv-x="1925" d="M187 1088H455L439 970Q584 1116 764 1116Q837 1116 900 1091T1003 1027T1071 918Q1146 1015 1247 1065T1457 1116Q1594 1116 1684 1025T1774 787Q1774 732 1764 650L1678 0H1413L1486 559Q1501 672 1501 709Q1501 786 1463 826T1354 866Q1286 866 1217 818T1111 689T1049 412L995 0H728L807 592Q817 664 817 715Q817 786 776 827T668 869Q604 869 537 825T432 704T373 469L312 0H45L187 1088Z"  />
<glyph unicode="n" horiz-adv-x="1229" d="M193 1088H459L443 978Q596 1116 761 1116Q902 1116 992 1027T1082 801Q1082 737 1065 610L984 0H719L798 595Q810 687 810 733Q810 799 773 834T666 870Q599 870 532 824T429 695T363 385L312 0H46L193 1088Z"  />
<glyph unicode="o" horiz-adv-x="1311" d="M684 1116Q829 1116 947 1049T1132 859T1198 583Q1198 329 1017 151T569 -28Q337 -28 199 112T61 480Q61 754 248 935T684 1116ZM665 863Q501 863 414 746T326 491Q326 369 397 295T588 220Q757 220 845 333T934 593Q934 713 859 788T665 863Z"  />
<glyph unicode="p" horiz-adv-x="1352" d="M258 -398H-9L186 1088H449L434 971Q521 1053 596 1084T766 1116Q983 1116 1110 957T1237 588Q1237 427 1156 281T939 54T654 -28Q554 -28 469 18T330 152L258 -398ZM704 879Q607 879 534 835T411 696T361 504Q361 375 435 297T632 218Q774 218 873 323T972 594Q972 722 897 800T704 879Z"  />
<glyph unicode="q" horiz-adv-x="1352" d="M984 1088H1251L1057 -398H793L860 117Q773 36 698 4T528 -28Q312 -28 185 131T57 501Q57 662 138 807T355 1034T641 1116Q741 1116 825 1070T965 936L984 1088ZM590 210Q688 210 761 254T883 392T933 584Q933 713 859 791T662 870Q520 870 421 765T322 494Q322 366 397 288T590 210Z"  />
<glyph unicode="r" horiz-adv-x="655" d="M126 1088H364L345 940Q452 1116 602 1116Q638 1116 677 1097L581 856Q551 865 537 865Q460 865 400 775T304 409L252 0H-16L126 1088Z"  />
<glyph unicode="s" horiz-adv-x="901" d="M790 936L663 732Q614 805 560 839T459 874Q423 874 398 854T373 809Q373 785 393 761Q412 737 508 668Q661 558 709 480T758 309Q758 188 659 80T370 -28Q261 -28 172 16T-28 177L137 369Q249 221 382 221Q435 221 466 246T498 307Q498 335 474 364T343 470Q219 558 172 621Q106 709 106 807Q106 944 209 1030T454 1116Q553 1116 642 1069T790 936Z"  />
<glyph unicode="t" horiz-adv-x="614" d="M249 1492H515L459 1088H628L596 858H428L311 0H44L162 858H31L62 1088H193L249 1492Z"  />
<glyph unicode="u" horiz-adv-x="1229" d="M195 1088H459L386 532Q374 440 374 394Q374 322 424 273T554 224Q657 224 712 287T794 543L869 1088H1133L1054 503Q1027 305 964 197T795 30T548 -28Q348 -28 230 87T112 386Q112 498 137 674L195 1088Z"  />
<glyph unicode="v" horiz-adv-x="1147" d="M55 1088H317L487 483L836 1088H1126L495 0H366L55 1088Z"  />
<glyph unicode="w" horiz-adv-x="1638" d="M52 1088H309L459 505L776 1088H881L1033 505L1348 1088H1632L1041 0H912L764 575L454 0H327L52 1088Z"  />
<glyph unicode="x" horiz-adv-x="1147" d="M60 1088H354L544 779L770 1088H1081L686 547L1021 0H727L525 329L281 0H-30L384 560L60 1088Z"  />
<glyph unicode="y" horiz-adv-x="1188" d="M45 1088H307L519 442L891 1088H1179L324 -398H42L351 148L45 1088Z"  />
<glyph unicode="z" horiz-adv-x="942" d="M87 1088H949L392 246H902L868 0H-71L484 839H55L87 1088Z"  />
<glyph unicode="{" horiz-adv-x="696" d="M-16 390L18 630Q109 634 158 667T242 782Q267 842 287 990T324 1197Q352 1302 403 1358T558 1448Q627 1471 767 1471H820L786 1231Q673 1231 638 1218T586 1175Q574 1154 551 1026Q511 794 493 744Q463 662 420 611T293 509Q425 426 425 251Q425 177 406 -7Q396 -100 396 -124Q396 -174 443 -197Q473 -212 583 -212L549 -451H497Q344 -451 274 -423T166 -338T129 -192Q129 -123 150 14Q169 137 169 206Q169 292 119 346Q83 384 -16 390Z"  />
<glyph unicode="|" horiz-adv-x="1229" d="M536 1508H694V-398H536V1508Z"  />
<glyph unicode="}" horiz-adv-x="696" d="M627 630L593 390Q502 385 453 352T369 238Q343 178 323 30T287 -178Q259 -282 207 -338T52 -429Q-17 -451 -156 -451H-209L-175 -212Q-62 -212 -27 -198T25 -156Q37 -135 59 -7Q100 225 118 276Q148 358 191 409T318 510Q185 594 185 768Q185 842 205 1026Q215 1119 215 1144Q215 1193 167 1217Q138 1231 27 1231L61 1471H114Q267 1471 337 1443T444 1358T481 1212Q481 1142 461 1005Q442 882 442 813Q442 728 492 674Q528 635 627 630Z"  />
<glyph unicode="~" horiz-adv-x="1229" d="M100 564V883Q252 957 350 957Q414 957 490 936T694 853Q777 812 803 805Q838 795 872 795Q983 795 1130 908V586Q1004 514 883 514Q817 514 750 532T532 617Q436 659 404 667T338 676Q288 676 237 654T100 564Z"  />
<glyph unicode="&#xA0;" horiz-adv-x="573" />
<glyph unicode="&#xA1;" horiz-adv-x="573" d="M326 802Q256 802 207 851T158 970Q158 1039 207 1088T326 1138Q395 1138 444 1089T493 970Q493 900 444 851T326 802ZM279 -398H4L155 676H430L279 -398Z"  />
<glyph unicode="&#xA2;" horiz-adv-x="1147" d="M1037 1356L1169 1270L1010 1027Q1063 992 1109 948L962 762Q923 798 880 826L486 219Q538 205 576 205Q644 205 724 246T866 361L1010 168Q896 58 787 11T555 -37Q448 -37 349 5L149 -303L17 -219L220 93Q70 246 70 471Q70 645 156 799T387 1038T699 1124Q780 1124 866 1095L1037 1356ZM730 883L682 885Q538 885 429 768T320 486Q320 406 366 320L730 883Z"  />
<glyph unicode="&#xA3;" horiz-adv-x="1147" d="M1066 1088H797Q801 1119 801 1141Q801 1192 769 1223T679 1254Q608 1254 563 1204T518 1065Q518 1014 540 868H866L833 616H554Q553 522 532 453Q504 360 441 243Q460 243 544 232Q606 224 643 224Q743 224 785 333H1052Q1001 152 888 58T629 -37Q559 -37 405 -18Q260 0 210 0Q115 0 -26 -41L8 210Q78 233 149 243Q232 400 254 467T282 616H62L94 868H255Q228 982 228 1067Q228 1256 361 1382T709 1508Q879 1508 977 1416T1075 1179Q1075 1143 1066 1088Z"  />
<glyph unicode="&#xA4;" horiz-adv-x="1229" d="M96 425L199 529Q147 608 127 674T107 818Q107 901 128 969T201 1110L95 1214L216 1338L322 1232Q392 1281 466 1305T618 1329Q693 1329 764 1307T909 1235L1014 1338L1133 1214L1029 1113Q1082 1041 1104 971T1127 818Q1127 737 1105 669T1032 529L1136 425L1017 304L912 407Q839 354 768 331T616 307Q537 307 466 330T321 407L216 304L96 425ZM303 816Q303 684 395 591T617 498Q746 498 838 591T930 819Q930 952 839 1045T618 1139Q489 1139 396 1045T303 816Z"  />
<glyph unicode="&#xA5;" horiz-adv-x="1147" d="M66 1471H337L516 891L880 1471H1187L722 732H939L918 566H620L604 451H900L880 283H580L542 0H266L304 283H20L41 451H327L342 566H58L82 732H295L66 1471Z"  />
<glyph unicode="&#xA6;" horiz-adv-x="1229" d="M537 744V1508H695V799L537 744ZM537 -398V512L695 567V-398H537Z"  />
<glyph unicode="&#xA7;" horiz-adv-x="1147" d="M1048 1151H781Q777 1215 740 1249T640 1284Q582 1284 547 1254T512 1181Q512 1146 542 1109Q571 1072 696 981Q854 866 907 810T985 692T1010 562Q1010 447 940 357T738 227Q811 172 847 103T883 -51Q883 -213 753 -319T443 -426Q330 -426 244 -381T109 -252T59 -73V-50H320Q326 -107 365 -141T467 -176Q533 -176 570 -145T608 -69Q608 -50 601 -32T577 3Q522 65 315 217Q178 317 133 393T87 559Q87 670 156 769T344 919Q289 969 261 1028T233 1157Q233 1310 356 1423T667 1536Q838 1536 943 1428T1048 1151ZM487 800Q410 777 368 727T325 617Q325 578 343 550T441 459L601 336Q684 361 725 403T766 505Q766 549 739 590T617 703L487 800Z"  />
<glyph unicode="&#xA8;" horiz-adv-x="1024" d="M365 1536Q417 1536 452 1501T488 1417Q488 1348 440 1299T323 1250Q267 1250 233 1284T199 1375Q199 1439 248 1487T365 1536ZM808 1536Q860 1536 895 1501T931 1417Q931 1348 883 1299T766 1250Q710 1250 676 1284T642 1375Q642 1439 691 1487T808 1536Z"  />
<glyph unicode="&#xA9;" horiz-adv-x="1515" d="M1524 757Q1524 552 1422 375T1141 95T758 -8Q553 -8 375 94T95 374T-8 757Q-8 961 94 1138T374 1417T758 1520Q964 1520 1141 1418T1421 1138T1524 757ZM1366 754Q1366 1007 1189 1184T759 1362Q595 1362 454 1281T231 1060T150 758Q150 597 231 458T453 237T757 156Q920 156 1062 237T1285 456T1366 754ZM980 616H1156Q1139 485 1038 400T790 315Q602 315 482 441T361 770Q361 966 480 1088T784 1210Q933 1210 1029 1135T1156 917H980Q963 991 912 1031T786 1071Q675 1071 603 991T531 772Q531 630 607 543T790 455Q865 455 918 500T980 616Z"  />
<glyph unicode="&#xAA;" horiz-adv-x="737" d="M535 1491H733L637 810H441L449 870Q400 823 367 809T285 794Q197 794 135 874T72 1095Q72 1269 170 1388T389 1508Q428 1508 457 1492T526 1427L535 1491ZM368 964Q421 964 455 1012Q500 1077 500 1175Q500 1252 471 1292T397 1333Q347 1333 307 1277T267 1121Q267 1045 297 1005T368 964Z"  />
<glyph unicode="&#xAB;" horiz-adv-x="942" d="M260 1088H514L251 538L359 0H104L-3 538L260 1088ZM714 1088H967L704 538L812 0H558L450 538L714 1088Z"  />
<glyph unicode="&#xAC;" horiz-adv-x="1229" d="M115 1074H1114V396L865 397V825L115 824V1074Z"  />
<glyph unicode="&#xAD;" horiz-adv-x="860" d="M156 663H695L664 420H124L156 663Z"  />
<glyph unicode="&#xAE;" horiz-adv-x="1515" d="M1524 755Q1524 550 1422 374T1142 95T758 -8Q553 -8 375 94T95 373T-8 756Q-8 961 94 1138T374 1417T758 1520Q964 1520 1141 1418T1421 1138T1524 755ZM1366 753Q1366 1007 1189 1184T760 1362Q507 1362 329 1185T150 758Q150 596 230 457T453 237T758 156Q920 156 1062 236T1285 455T1366 753ZM441 1173H812Q929 1173 984 1147T1072 1065T1106 930Q1106 863 1086 821T1008 737Q1054 711 1071 679T1092 564Q1099 408 1105 383T1141 334H931Q917 368 913 391T908 470Q905 581 896 607T865 646T774 659H625V334H441V1173ZM625 1012V813H779Q868 813 897 837T926 914Q926 967 898 989T780 1012H625Z"  />
<glyph unicode="&#xAF;" horiz-adv-x="1024" d="M103 1685H1151V1583H103V1685Z"  />
<glyph unicode="&#xB0;" horiz-adv-x="819" d="M797 1164Q797 1019 696 920T451 820Q307 820 207 920T107 1167Q107 1308 209 1408T454 1508Q596 1508 696 1408T797 1164ZM678 1162Q678 1261 613 1328T455 1395Q360 1395 293 1328T226 1164Q226 1070 293 1001T454 932Q546 932 612 999T678 1162Z"  />
<glyph unicode="&#xB1;" horiz-adv-x="1124" d="M437 1079V1454H687V1079H1061V829H687V455H437V829H62V1079H437ZM62 250H1061V0H62V250Z"  />
<glyph unicode="&#xB2;" horiz-adv-x="688" d="M313 1239H132Q137 1365 212 1436T413 1508Q530 1508 602 1444T675 1290Q675 1220 626 1144T372 886H642L618 733H57L75 851Q383 1113 450 1195Q492 1247 492 1290Q492 1316 470 1335T412 1355Q372 1355 349 1331T313 1239Z"  />
<glyph unicode="&#xB3;" horiz-adv-x="688" d="M343 1286H169Q183 1390 254 1449T436 1508Q542 1508 609 1449T676 1311Q676 1209 557 1138Q659 1074 659 970Q659 868 571 792T348 715Q265 715 202 749T107 840T75 984H251Q259 869 362 869Q412 869 444 900T476 978Q476 1017 441 1043T313 1073L337 1214Q417 1214 453 1239T489 1301Q489 1324 471 1339T421 1354Q354 1354 343 1286Z"  />
<glyph unicode="&#xB4;" horiz-adv-x="860" d="M615 1677H938L517 1286H321L615 1677Z"  />
<glyph unicode="&#xB5;" horiz-adv-x="1180" d="M-69 -398L153 1088H418L332 517Q319 432 319 394Q319 313 375 258T512 203Q576 203 632 236T724 335T779 525L864 1088H1128L964 0H701L720 127Q663 42 602 7T471 -29Q405 -29 355 6T272 119L195 -398H-69Z"  />
<glyph unicode="&#xB6;" horiz-adv-x="1229" d="M552 -379V710Q368 711 266 815T163 1104Q163 1307 274 1410T636 1513H1056V1397H974V-379H835V1397H691V-379H552Z"  />
<glyph unicode="&#xB7;" horiz-adv-x="682" d="M713 874Q765 874 800 839T836 755Q836 686 788 637T671 588Q615 588 581 622T547 713Q547 777 596 825T713 874Z"  />
<glyph unicode="&#xB8;" horiz-adv-x="696" d="M265 14H434L416 -30Q476 -46 507 -82T538 -164Q538 -250 461 -316T254 -382Q146 -382 38 -335L92 -206Q163 -230 230 -230Q283 -230 312 -207T342 -150Q342 -126 326 -114T263 -102L212 -104L265 14Z"  />
<glyph unicode="&#xB9;" horiz-adv-x="688" d="M290 1489H569L447 733H264L360 1335H227L290 1489Z"  />
<glyph unicode="&#xBA;" horiz-adv-x="737" d="M431 1508Q560 1508 645 1417T731 1174Q731 1014 625 904T366 794Q233 794 152 881T70 1112Q70 1280 177 1394T431 1508ZM416 1328Q355 1328 311 1271T267 1119Q267 1048 298 1009T381 970Q446 970 490 1026T535 1179Q535 1249 501 1288T416 1328Z"  />
<glyph unicode="&#xBB;" horiz-adv-x="942" d="M628 0H374L637 550L529 1088H784L891 550L628 0ZM174 0H-79L184 550L76 1088H330L438 550L174 0Z"  />
<glyph unicode="&#xBC;" horiz-adv-x="1720" d="M298 1489H577L455 733H272L368 1335H235L298 1489ZM296 -37L1284 1508H1455L467 -37H296ZM1494 776H1662L1585 288H1667L1644 141H1562L1540 1H1374L1396 141H1020L1042 281L1494 776ZM1453 530L1237 288H1418L1453 530Z"  />
<glyph unicode="&#xBD;" horiz-adv-x="1720" d="M298 1489H577L455 733H272L368 1335H235L298 1489ZM271 -37L1259 1508H1430L442 -37H271ZM1289 507H1108Q1113 633 1188 704T1389 776Q1506 776 1578 712T1651 558Q1651 488 1602 412T1348 154H1618L1594 1H1033L1051 119Q1359 381 1426 463Q1468 515 1468 558Q1468 584 1446 603T1388 623Q1348 623 1325 599T1289 507Z"  />
<glyph unicode="&#xBE;" horiz-adv-x="1720" d="M351 1286H177Q191 1390 262 1449T444 1508Q550 1508 617 1449T684 1311Q684 1209 565 1138Q667 1074 667 970Q667 868 579 792T356 715Q273 715 210 749T115 840T83 984H259Q267 869 370 869Q420 869 452 900T484 978Q484 1017 449 1043T321 1073L345 1214Q425 1214 461 1239T497 1301Q497 1324 479 1339T429 1354Q362 1354 351 1286ZM331 -37L1319 1508H1490L502 -37H331ZM1493 776H1661L1584 288H1666L1643 141H1561L1539 1H1373L1395 141H1019L1041 281L1493 776ZM1452 530L1236 288H1417L1452 530Z"  />
<glyph unicode="&#xBF;" horiz-adv-x="1147" d="M633 802Q564 802 515 851T465 970Q465 1039 514 1088T633 1138Q703 1138 752 1089T801 970Q801 900 752 851T633 802ZM710 12H972Q958 -114 888 -214T701 -370T437 -426Q245 -426 123 -311T1 -34Q1 170 243 347Q353 428 380 459T427 543T454 674H710Q706 493 651 387T447 180Q328 100 297 56T265 -32Q265 -90 319 -134T464 -178Q663 -178 710 12Z"  />
<glyph unicode="&#xC0;" horiz-adv-x="1515" d="M770 1471H1003L1369 0H1101L1023 313H442L273 0H-24L770 1471ZM956 573L838 1056L579 573H956ZM604 2006H926L1108 1614H913L604 2006Z"  />
<glyph unicode="&#xC1;" horiz-adv-x="1515" d="M770 1471H1003L1369 0H1101L1023 313H442L273 0H-24L770 1471ZM956 573L838 1056L579 573H956ZM1003 2006H1326L905 1615H709L1003 2006Z"  />
<glyph unicode="&#xC2;" horiz-adv-x="1515" d="M770 1471H1003L1369 0H1101L1023 313H442L273 0H-24L770 1471ZM956 573L838 1056L579 573H956ZM835 1865H1053L1312 1583H1014L924 1713L794 1583H494L835 1865Z"  />
<glyph unicode="&#xC3;" horiz-adv-x="1515" d="M770 1471H1003L1369 0H1101L1023 313H442L273 0H-24L770 1471ZM956 573L838 1056L579 573H956ZM574 1618L488 1783Q577 1840 638 1860T762 1880Q809 1880 884 1859Q1003 1826 1051 1826Q1136 1826 1230 1877L1313 1722Q1211 1650 1173 1636Q1112 1614 1051 1614Q990 1614 903 1641Q832 1663 814 1667Q790 1671 760 1671Q662 1671 574 1618Z"  />
<glyph unicode="&#xC4;" horiz-adv-x="1515" d="M770 1471H1003L1369 0H1101L1023 313H442L273 0H-24L770 1471ZM956 573L838 1056L579 573H956ZM707 1865Q759 1865 794 1830T830 1746Q830 1677 782 1628T665 1579Q609 1579 575 1613T541 1704Q541 1768 590 1816T707 1865ZM1150 1865Q1202 1865 1237 1830T1273 1746Q1273 1677 1225 1628T1108 1579Q1052 1579 1018 1613T984 1704Q984 1768 1033 1816T1150 1865Z"  />
<glyph unicode="&#xC5;" horiz-adv-x="1515" d="M770 1471H1003L1369 0H1101L1023 313H442L273 0H-24L770 1471ZM956 573L838 1056L579 573H956ZM962 2060Q1043 2060 1095 2007T1148 1867Q1148 1768 1071 1691T895 1614Q813 1614 760 1669T706 1807Q706 1911 781 1985T962 2060ZM943 1932Q903 1932 874 1902T844 1831Q844 1797 864 1776T915 1755Q952 1755 981 1785T1010 1855Q1010 1889 991 1910T943 1932Z"  />
<glyph unicode="&#xC6;" horiz-adv-x="1843" d="M761 1471H1776L1741 1210H1218L1176 904H1703L1668 646H1144L1090 256H1617L1583 0H788L830 314H431L260 0H-36L761 1471ZM865 572L959 1298L568 572H865Z"  />
<glyph unicode="&#xC7;" horiz-adv-x="1597" d="M1524 1281L1323 1095Q1258 1170 1164 1210T960 1251Q806 1251 665 1172T446 963T367 686Q367 486 505 354T859 221Q1090 221 1259 355L1422 140Q1171 -37 841 -37Q609 -37 447 51T186 309T87 679Q87 892 203 1087T519 1395T953 1508Q1283 1508 1524 1281ZM716 14H885L867 -30Q927 -46 958 -82T989 -164Q989 -250 912 -316T705 -382Q597 -382 489 -335L543 -206Q614 -230 681 -230Q734 -230 763 -207T793 -150Q793 -126 777 -114T714 -102L663 -104L716 14Z"  />
<glyph unicode="&#xC8;" horiz-adv-x="1065" d="M245 1471H1044L1010 1210H490L448 906H970L937 647H415L363 257H888L853 0H52L245 1471ZM378 2006H700L882 1614H687L378 2006Z"  />
<glyph unicode="&#xC9;" horiz-adv-x="1065" d="M245 1471H1044L1010 1210H490L448 906H970L937 647H415L363 257H888L853 0H52L245 1471ZM777 2006H1100L679 1615H483L777 2006Z"  />
<glyph unicode="&#xCA;" horiz-adv-x="1065" d="M245 1471H1044L1010 1210H490L448 906H970L937 647H415L363 257H888L853 0H52L245 1471ZM609 1865H827L1086 1583H788L698 1713L568 1583H268L609 1865Z"  />
<glyph unicode="&#xCB;" horiz-adv-x="1065" d="M245 1471H1044L1010 1210H490L448 906H970L937 647H415L363 257H888L853 0H52L245 1471ZM446 1865Q498 1865 533 1830T569 1746Q569 1677 521 1628T404 1579Q348 1579 314 1613T280 1704Q280 1768 329 1816T446 1865ZM889 1865Q941 1865 976 1830T1012 1746Q1012 1677 964 1628T847 1579Q791 1579 757 1613T723 1704Q723 1768 772 1816T889 1865Z"  />
<glyph unicode="&#xCC;" horiz-adv-x="573" d="M256 1471H526L323 0H58L256 1471ZM122 2006H444L626 1614H431L122 2006Z"  />
<glyph unicode="&#xCD;" horiz-adv-x="573" d="M256 1471H526L323 0H58L256 1471ZM521 2006H844L423 1615H227L521 2006Z"  />
<glyph unicode="&#xCE;" horiz-adv-x="573" d="M256 1471H526L323 0H58L256 1471ZM353 1865H571L830 1583H532L442 1713L312 1583H12L353 1865Z"  />
<glyph unicode="&#xCF;" horiz-adv-x="573" d="M256 1471H526L323 0H58L256 1471ZM213 1865Q265 1865 300 1830T336 1746Q336 1677 288 1628T171 1579Q115 1579 81 1613T47 1704Q47 1768 96 1816T213 1865ZM656 1865Q708 1865 743 1830T779 1746Q779 1677 731 1628T614 1579Q558 1579 524 1613T490 1704Q490 1768 539 1816T656 1865Z"  />
<glyph unicode="&#xD0;" horiz-adv-x="1520" d="M230 651H104L127 817H252L340 1471H573Q903 1471 1063 1394T1324 1150T1425 767Q1425 544 1319 358T1050 86T599 0H143L230 651ZM508 651L455 257H546Q757 257 851 292Q983 342 1063 463T1143 762Q1143 908 1086 1006T927 1158T653 1212H582L530 817H852L831 651H508Z"  />
<glyph unicode="&#xD1;" horiz-adv-x="1515" d="M266 1471H508L1041 471L1176 1471H1445L1247 0H1011L471 1011L336 0H71L266 1471ZM574 1618L488 1783Q577 1840 638 1860T762 1880Q809 1880 884 1859Q1003 1826 1051 1826Q1136 1826 1230 1877L1313 1722Q1211 1650 1173 1636Q1112 1614 1051 1614Q990 1614 903 1641Q832 1663 814 1667Q790 1671 760 1671Q662 1671 574 1618Z"  />
<glyph unicode="&#xD2;" horiz-adv-x="1720" d="M945 1508Q1248 1508 1445 1313T1642 818Q1642 588 1526 385T1216 72T771 -37Q457 -37 270 149T82 639Q82 984 306 1232Q556 1508 945 1508ZM935 1247Q777 1247 647 1171T436 951T356 654Q356 473 467 347T786 221Q1027 221 1195 391T1364 804Q1364 1005 1246 1126T935 1247ZM707 2006H1029L1211 1614H1016L707 2006Z"  />
<glyph unicode="&#xD3;" horiz-adv-x="1720" d="M945 1508Q1248 1508 1445 1313T1642 818Q1642 588 1526 385T1216 72T771 -37Q457 -37 270 149T82 639Q82 984 306 1232Q556 1508 945 1508ZM935 1247Q777 1247 647 1171T436 951T356 654Q356 473 467 347T786 221Q1027 221 1195 391T1364 804Q1364 1005 1246 1126T935 1247ZM1105 2006H1428L1007 1615H811L1105 2006Z"  />
<glyph unicode="&#xD4;" horiz-adv-x="1720" d="M945 1508Q1248 1508 1445 1313T1642 818Q1642 588 1526 385T1216 72T771 -37Q457 -37 270 149T82 639Q82 984 306 1232Q556 1508 945 1508ZM935 1247Q777 1247 647 1171T436 951T356 654Q356 473 467 347T786 221Q1027 221 1195 391T1364 804Q1364 1005 1246 1126T935 1247ZM938 1865H1156L1415 1583H1117L1027 1713L897 1583H597L938 1865Z"  />
<glyph unicode="&#xD5;" horiz-adv-x="1720" d="M945 1508Q1248 1508 1445 1313T1642 818Q1642 588 1526 385T1216 72T771 -37Q457 -37 270 149T82 639Q82 984 306 1232Q556 1508 945 1508ZM935 1247Q777 1247 647 1171T436 951T356 654Q356 473 467 347T786 221Q1027 221 1195 391T1364 804Q1364 1005 1246 1126T935 1247ZM677 1618L591 1783Q680 1840 741 1860T865 1880Q912 1880 987 1859Q1106 1826 1154 1826Q1239 1826 1333 1877L1416 1722Q1314 1650 1276 1636Q1215 1614 1154 1614Q1093 1614 1006 1641Q935 1663 917 1667Q893 1671 863 1671Q765 1671 677 1618Z"  />
<glyph unicode="&#xD6;" horiz-adv-x="1720" d="M945 1508Q1248 1508 1445 1313T1642 818Q1642 588 1526 385T1216 72T771 -37Q457 -37 270 149T82 639Q82 984 306 1232Q556 1508 945 1508ZM935 1247Q777 1247 647 1171T436 951T356 654Q356 473 467 347T786 221Q1027 221 1195 391T1364 804Q1364 1005 1246 1126T935 1247ZM774 1865Q826 1865 861 1830T897 1746Q897 1677 849 1628T732 1579Q676 1579 642 1613T608 1704Q608 1768 657 1816T774 1865ZM1217 1865Q1269 1865 1304 1830T1340 1746Q1340 1677 1292 1628T1175 1579Q1119 1579 1085 1613T1051 1704Q1051 1768 1100 1816T1217 1865Z"  />
<glyph unicode="&#xD7;" horiz-adv-x="1229" d="M615 588L298 272L150 419L467 736L150 1053L298 1201L615 884L931 1201L1079 1053L762 736L1079 419L931 272L615 588Z"  />
<glyph unicode="&#xD8;" horiz-adv-x="1720" d="M1472 1284Q1642 1089 1642 819Q1642 589 1526 386T1216 73T773 -37Q548 -37 391 54L256 -100L135 0L267 151Q82 341 82 639Q82 878 196 1079T506 1394T936 1508Q1180 1508 1350 1391L1478 1538L1599 1434L1472 1284ZM453 364L1171 1186Q1066 1247 930 1247Q776 1247 646 1170T436 950T356 654Q356 486 453 364ZM1286 1076L576 266Q667 221 789 221Q1028 221 1196 391T1364 803Q1364 960 1286 1076Z"  />
<glyph unicode="&#xD9;" horiz-adv-x="1311" d="M260 1471H535L413 563Q397 444 397 395Q397 312 448 266T598 219Q677 219 736 254Q780 280 806 340T858 581L981 1471H1259L1139 593Q1102 322 1042 204T869 25T592 -37Q372 -37 249 80T126 400Q126 488 150 660L260 1471ZM502 2006H824L1006 1614H811L502 2006Z"  />
<glyph unicode="&#xDA;" horiz-adv-x="1311" d="M260 1471H535L413 563Q397 444 397 395Q397 312 448 266T598 219Q677 219 736 254Q780 280 806 340T858 581L981 1471H1259L1139 593Q1102 322 1042 204T869 25T592 -37Q372 -37 249 80T126 400Q126 488 150 660L260 1471ZM901 2006H1224L803 1615H607L901 2006Z"  />
<glyph unicode="&#xDB;" horiz-adv-x="1311" d="M260 1471H535L413 563Q397 444 397 395Q397 312 448 266T598 219Q677 219 736 254Q780 280 806 340T858 581L981 1471H1259L1139 593Q1102 322 1042 204T869 25T592 -37Q372 -37 249 80T126 400Q126 488 150 660L260 1471ZM733 1865H951L1210 1583H912L822 1713L692 1583H392L733 1865Z"  />
<glyph unicode="&#xDC;" horiz-adv-x="1311" d="M260 1471H535L413 563Q397 444 397 395Q397 312 448 266T598 219Q677 219 736 254Q780 280 806 340T858 581L981 1471H1259L1139 593Q1102 322 1042 204T869 25T592 -37Q372 -37 249 80T126 400Q126 488 150 660L260 1471ZM605 1865Q657 1865 692 1830T728 1746Q728 1677 680 1628T563 1579Q507 1579 473 1613T439 1704Q439 1768 488 1816T605 1865ZM1048 1865Q1100 1865 1135 1830T1171 1746Q1171 1677 1123 1628T1006 1579Q950 1579 916 1613T882 1704Q882 1768 931 1816T1048 1865Z"  />
<glyph unicode="&#xDD;" horiz-adv-x="1270" d="M66 1471H345L575 882L993 1471H1310L682 588L603 0H327L408 588L66 1471ZM879 2006H1202L781 1615H585L879 2006Z"  />
<glyph unicode="&#xDE;" horiz-adv-x="1147" d="M269 1471H546L507 1160Q704 1158 784 1133Q911 1094 988 998T1066 764Q1066 631 994 523T799 365T392 310L348 0H71L269 1471ZM426 571Q652 571 721 617T790 755Q790 806 763 841T683 890T473 904L426 571Z"  />
<glyph unicode="&#xDF;" horiz-adv-x="1229" d="M545 729L576 939Q663 939 733 970T835 1048T868 1149Q868 1205 824 1245T709 1286Q606 1286 535 1211T443 967L436 908L312 0H47L158 866Q194 1149 259 1270T447 1463T723 1536Q910 1536 1022 1434T1134 1178Q1134 1052 1060 956T854 818Q1098 696 1098 446Q1098 245 956 109T593 -28Q494 -28 409 7L439 257Q506 220 578 220Q688 220 763 292T838 472Q838 584 760 656T545 729Z"  />
<glyph unicode="&#xE0;" horiz-adv-x="1352" d="M984 1088H1251L1109 0H845L860 117Q773 36 698 4T528 -28Q312 -28 185 131T57 501Q57 662 138 807T355 1034T641 1116Q741 1116 825 1070T965 936L984 1088ZM590 210Q688 210 761 254T883 392T933 584Q933 713 859 791T662 870Q520 870 421 765T322 494Q322 366 397 288T590 210ZM461 1677H783L965 1285H770L461 1677Z"  />
<glyph unicode="&#xE1;" horiz-adv-x="1352" d="M984 1088H1251L1109 0H845L860 117Q773 36 698 4T528 -28Q312 -28 185 131T57 501Q57 662 138 807T355 1034T641 1116Q741 1116 825 1070T965 936L984 1088ZM590 210Q688 210 761 254T883 392T933 584Q933 713 859 791T662 870Q520 870 421 765T322 494Q322 366 397 288T590 210ZM860 1677H1183L762 1286H566L860 1677Z"  />
<glyph unicode="&#xE2;" horiz-adv-x="1352" d="M984 1088H1251L1109 0H845L860 117Q773 36 698 4T528 -28Q312 -28 185 131T57 501Q57 662 138 807T355 1034T641 1116Q741 1116 825 1070T965 936L984 1088ZM590 210Q688 210 761 254T883 392T933 584Q933 713 859 791T662 870Q520 870 421 765T322 494Q322 366 397 288T590 210ZM692 1536H910L1169 1254H871L781 1384L651 1254H351L692 1536Z"  />
<glyph unicode="&#xE3;" horiz-adv-x="1352" d="M984 1088H1251L1109 0H845L860 117Q773 36 698 4T528 -28Q312 -28 185 131T57 501Q57 662 138 807T355 1034T641 1116Q741 1116 825 1070T965 936L984 1088ZM590 210Q688 210 761 254T883 392T933 584Q933 713 859 791T662 870Q520 870 421 765T322 494Q322 366 397 288T590 210ZM432 1289L346 1454Q435 1511 496 1531T620 1551Q667 1551 742 1530Q861 1497 909 1497Q994 1497 1088 1548L1171 1393Q1069 1321 1031 1307Q970 1285 909 1285Q848 1285 761 1312Q690 1334 672 1338Q648 1342 618 1342Q520 1342 432 1289Z"  />
<glyph unicode="&#xE4;" horiz-adv-x="1352" d="M984 1088H1251L1109 0H845L860 117Q773 36 698 4T528 -28Q312 -28 185 131T57 501Q57 662 138 807T355 1034T641 1116Q741 1116 825 1070T965 936L984 1088ZM590 210Q688 210 761 254T883 392T933 584Q933 713 859 791T662 870Q520 870 421 765T322 494Q322 366 397 288T590 210ZM529 1536Q581 1536 616 1501T652 1417Q652 1348 604 1299T487 1250Q431 1250 397 1284T363 1375Q363 1439 412 1487T529 1536ZM972 1536Q1024 1536 1059 1501T1095 1417Q1095 1348 1047 1299T930 1250Q874 1250 840 1284T806 1375Q806 1439 855 1487T972 1536Z"  />
<glyph unicode="&#xE5;" horiz-adv-x="1352" d="M984 1088H1251L1109 0H845L860 117Q773 36 698 4T528 -28Q312 -28 185 131T57 501Q57 662 138 807T355 1034T641 1116Q741 1116 825 1070T965 936L984 1088ZM590 210Q688 210 761 254T883 392T933 584Q933 713 859 791T662 870Q520 870 421 765T322 494Q322 366 397 288T590 210ZM820 1731Q901 1731 953 1678T1006 1538Q1006 1439 929 1362T753 1285Q671 1285 618 1340T564 1478Q564 1582 639 1656T820 1731ZM801 1603Q761 1603 732 1573T702 1502Q702 1468 722 1447T773 1426Q810 1426 839 1456T868 1526Q868 1560 849 1581T801 1603Z"  />
<glyph unicode="&#xE6;" horiz-adv-x="2212" d="M2080 463H1194Q1237 216 1478 216Q1634 216 1747 316L1983 195Q1911 98 1777 35T1486 -28Q1379 -28 1296 -1T1120 94L1108 0H864L879 114Q749 -28 547 -28Q410 -28 310 34T143 225T75 500Q75 660 156 805T376 1033T661 1116Q758 1116 843 1069T984 934L1006 1116H1249L1233 995Q1404 1116 1588 1116Q1794 1116 1942 960T2091 579Q2091 531 2080 463ZM680 867Q538 867 439 761T340 492Q340 362 414 284T608 206Q704 206 781 251T904 388T951 579Q951 708 875 787T680 867ZM1816 659Q1787 758 1718 810T1552 863Q1454 863 1373 814T1231 659H1816Z"  />
<glyph unicode="&#xE7;" horiz-adv-x="1311" d="M1187 863L961 740Q865 862 703 862Q594 862 510 816T376 681T326 495Q326 369 405 293T622 217Q813 217 915 346L1125 198Q1036 92 904 32T608 -28Q354 -28 208 112T61 482Q61 745 242 930T708 1116Q1029 1116 1187 863ZM573 14H742L724 -30Q784 -46 815 -82T846 -164Q846 -250 769 -316T562 -382Q454 -382 346 -335L400 -206Q471 -230 538 -230Q591 -230 620 -207T650 -150Q650 -126 634 -114T571 -102L520 -104L573 14Z"  />
<glyph unicode="&#xE8;" horiz-adv-x="1311" d="M861 319L1096 197Q1017 93 887 33T597 -28Q348 -28 205 112T61 484Q61 749 240 932T674 1116Q827 1116 946 1049T1135 854T1204 576Q1204 529 1194 466H326Q330 353 400 286T595 219Q745 219 861 319ZM929 662Q899 762 829 813T660 865Q562 865 483 812T363 662H929ZM441 1677H763L945 1285H750L441 1677Z"  />
<glyph unicode="&#xE9;" horiz-adv-x="1311" d="M861 319L1096 197Q1017 93 887 33T597 -28Q348 -28 205 112T61 484Q61 749 240 932T674 1116Q827 1116 946 1049T1135 854T1204 576Q1204 529 1194 466H326Q330 353 400 286T595 219Q745 219 861 319ZM929 662Q899 762 829 813T660 865Q562 865 483 812T363 662H929ZM840 1677H1163L742 1286H546L840 1677Z"  />
<glyph unicode="&#xEA;" horiz-adv-x="1311" d="M861 319L1096 197Q1017 93 887 33T597 -28Q348 -28 205 112T61 484Q61 749 240 932T674 1116Q827 1116 946 1049T1135 854T1204 576Q1204 529 1194 466H326Q330 353 400 286T595 219Q745 219 861 319ZM929 662Q899 762 829 813T660 865Q562 865 483 812T363 662H929ZM672 1536H890L1149 1254H851L761 1384L631 1254H331L672 1536Z"  />
<glyph unicode="&#xEB;" horiz-adv-x="1311" d="M861 319L1096 197Q1017 93 887 33T597 -28Q348 -28 205 112T61 484Q61 749 240 932T674 1116Q827 1116 946 1049T1135 854T1204 576Q1204 529 1194 466H326Q330 353 400 286T595 219Q745 219 861 319ZM929 662Q899 762 829 813T660 865Q562 865 483 812T363 662H929ZM509 1536Q561 1536 596 1501T632 1417Q632 1348 584 1299T467 1250Q411 1250 377 1284T343 1375Q343 1439 392 1487T509 1536ZM952 1536Q1004 1536 1039 1501T1075 1417Q1075 1348 1027 1299T910 1250Q854 1250 820 1284T786 1375Q786 1439 835 1487T952 1536Z"  />
<glyph unicode="&#xEC;" horiz-adv-x="491" d="M158 1088H422L276 0H10L158 1088ZM32 1677H354L536 1285H341L32 1677Z"  />
<glyph unicode="&#xED;" horiz-adv-x="491" d="M158 1088H422L276 0H10L158 1088ZM431 1677H754L333 1286H137L431 1677Z"  />
<glyph unicode="&#xEE;" horiz-adv-x="491" d="M158 1088H422L276 0H10L158 1088ZM263 1536H481L740 1254H442L352 1384L222 1254H-78L263 1536Z"  />
<glyph unicode="&#xEF;" horiz-adv-x="491" d="M158 1088H422L276 0H10L158 1088ZM100 1536Q152 1536 187 1501T223 1417Q223 1348 175 1299T58 1250Q2 1250 -32 1284T-66 1375Q-66 1439 -17 1487T100 1536ZM543 1536Q595 1536 630 1501T666 1417Q666 1348 618 1299T501 1250Q445 1250 411 1284T377 1375Q377 1439 426 1487T543 1536Z"  />
<glyph unicode="&#xF0;" horiz-adv-x="1311" d="M989 1508L1041 1361L894 1315Q1038 1164 1120 975T1203 610Q1203 337 1025 155T585 -28Q354 -28 206 121T58 497Q58 742 231 922T632 1102Q701 1102 784 1079Q739 1168 677 1247L480 1189L426 1334L570 1379Q511 1444 447 1508H687Q728 1476 767 1440L989 1508ZM666 862Q520 862 421 757T322 494Q322 373 397 297T591 220Q745 220 840 331T936 595Q936 709 860 785T666 862Z"  />
<glyph unicode="&#xF1;" horiz-adv-x="1229" d="M193 1088H459L443 978Q596 1116 761 1116Q902 1116 992 1027T1082 801Q1082 737 1065 610L984 0H719L798 595Q810 687 810 733Q810 799 773 834T666 870Q599 870 532 824T429 695T363 385L312 0H46L193 1088ZM371 1289L285 1454Q374 1511 435 1531T559 1551Q606 1551 681 1530Q800 1497 848 1497Q933 1497 1027 1548L1110 1393Q1008 1321 970 1307Q909 1285 848 1285Q787 1285 700 1312Q629 1334 611 1338Q587 1342 557 1342Q459 1342 371 1289Z"  />
<glyph unicode="&#xF2;" horiz-adv-x="1311" d="M684 1116Q829 1116 947 1049T1132 859T1198 583Q1198 329 1017 151T569 -28Q337 -28 199 112T61 480Q61 754 248 935T684 1116ZM665 863Q501 863 414 746T326 491Q326 369 397 295T588 220Q757 220 845 333T934 593Q934 713 859 788T665 863ZM442 1677H764L946 1285H751L442 1677Z"  />
<glyph unicode="&#xF3;" horiz-adv-x="1311" d="M684 1116Q829 1116 947 1049T1132 859T1198 583Q1198 329 1017 151T569 -28Q337 -28 199 112T61 480Q61 754 248 935T684 1116ZM665 863Q501 863 414 746T326 491Q326 369 397 295T588 220Q757 220 845 333T934 593Q934 713 859 788T665 863ZM840 1677H1163L742 1286H546L840 1677Z"  />
<glyph unicode="&#xF4;" horiz-adv-x="1311" d="M684 1116Q829 1116 947 1049T1132 859T1198 583Q1198 329 1017 151T569 -28Q337 -28 199 112T61 480Q61 754 248 935T684 1116ZM665 863Q501 863 414 746T326 491Q326 369 397 295T588 220Q757 220 845 333T934 593Q934 713 859 788T665 863ZM672 1536H890L1149 1254H851L761 1384L631 1254H331L672 1536Z"  />
<glyph unicode="&#xF5;" horiz-adv-x="1311" d="M684 1116Q829 1116 947 1049T1132 859T1198 583Q1198 329 1017 151T569 -28Q337 -28 199 112T61 480Q61 754 248 935T684 1116ZM665 863Q501 863 414 746T326 491Q326 369 397 295T588 220Q757 220 845 333T934 593Q934 713 859 788T665 863ZM412 1289L326 1454Q415 1511 476 1531T600 1551Q647 1551 722 1530Q841 1497 889 1497Q974 1497 1068 1548L1151 1393Q1049 1321 1011 1307Q950 1285 889 1285Q828 1285 741 1312Q670 1334 652 1338Q628 1342 598 1342Q500 1342 412 1289Z"  />
<glyph unicode="&#xF6;" horiz-adv-x="1311" d="M684 1116Q829 1116 947 1049T1132 859T1198 583Q1198 329 1017 151T569 -28Q337 -28 199 112T61 480Q61 754 248 935T684 1116ZM665 863Q501 863 414 746T326 491Q326 369 397 295T588 220Q757 220 845 333T934 593Q934 713 859 788T665 863ZM509 1536Q561 1536 596 1501T632 1417Q632 1348 584 1299T467 1250Q411 1250 377 1284T343 1375Q343 1439 392 1487T509 1536ZM952 1536Q1004 1536 1039 1501T1075 1417Q1075 1348 1027 1299T910 1250Q854 1250 820 1284T786 1375Q786 1439 835 1487T952 1536Z"  />
<glyph unicode="&#xF7;" horiz-adv-x="1124" d="M401 1326H723V1005H401V1326ZM62 860H1061V610H62V860ZM401 466H723V145H401V466Z"  />
<glyph unicode="&#xF8;" horiz-adv-x="1352" d="M1102 937Q1219 787 1219 583Q1219 329 1038 151T591 -28Q427 -28 314 37L161 -139L45 -34L196 139Q81 282 81 479Q81 653 164 798T392 1030T699 1116Q860 1116 983 1041L1146 1228L1265 1124L1102 937ZM379 349L806 839Q751 863 681 863Q520 863 433 745T346 492Q346 413 379 349ZM922 731L493 241Q545 220 609 220Q776 220 865 332T955 591Q955 672 922 731Z"  />
<glyph unicode="&#xF9;" horiz-adv-x="1229" d="M195 1088H459L386 532Q374 440 374 394Q374 322 424 273T554 224Q657 224 712 287T794 543L869 1088H1133L1054 503Q1027 305 964 197T795 30T548 -28Q348 -28 230 87T112 386Q112 498 137 674L195 1088ZM400 1677H722L904 1285H709L400 1677Z"  />
<glyph unicode="&#xFA;" horiz-adv-x="1229" d="M195 1088H459L386 532Q374 440 374 394Q374 322 424 273T554 224Q657 224 712 287T794 543L869 1088H1133L1054 503Q1027 305 964 197T795 30T548 -28Q348 -28 230 87T112 386Q112 498 137 674L195 1088ZM798 1677H1121L700 1286H504L798 1677Z"  />
<glyph unicode="&#xFB;" horiz-adv-x="1229" d="M195 1088H459L386 532Q374 440 374 394Q374 322 424 273T554 224Q657 224 712 287T794 543L869 1088H1133L1054 503Q1027 305 964 197T795 30T548 -28Q348 -28 230 87T112 386Q112 498 137 674L195 1088ZM631 1536H849L1108 1254H810L720 1384L590 1254H290L631 1536Z"  />
<glyph unicode="&#xFC;" horiz-adv-x="1229" d="M195 1088H459L386 532Q374 440 374 394Q374 322 424 273T554 224Q657 224 712 287T794 543L869 1088H1133L1054 503Q1027 305 964 197T795 30T548 -28Q348 -28 230 87T112 386Q112 498 137 674L195 1088ZM467 1536Q519 1536 554 1501T590 1417Q590 1348 542 1299T425 1250Q369 1250 335 1284T301 1375Q301 1439 350 1487T467 1536ZM910 1536Q962 1536 997 1501T1033 1417Q1033 1348 985 1299T868 1250Q812 1250 778 1284T744 1375Q744 1439 793 1487T910 1536Z"  />
<glyph unicode="&#xFD;" horiz-adv-x="1188" d="M45 1088H307L519 442L891 1088H1179L324 -398H42L351 148L45 1088ZM779 1677H1102L681 1286H485L779 1677Z"  />
<glyph unicode="&#xFE;" horiz-adv-x="1352" d="M258 -398H-9L241 1508H508L434 971Q521 1053 596 1084T766 1116Q983 1116 1110 957T1237 588Q1237 427 1156 281T939 54T654 -28Q554 -28 469 18T330 152L258 -398ZM704 879Q607 879 534 835T411 696T361 504Q361 375 435 297T632 218Q774 218 873 323T972 594Q972 722 897 800T704 879Z"  />
<glyph unicode="&#xFF;" horiz-adv-x="1188" d="M45 1088H307L519 442L891 1088H1179L324 -398H42L351 148L45 1088ZM447 1536Q499 1536 534 1501T570 1417Q570 1348 522 1299T405 1250Q349 1250 315 1284T281 1375Q281 1439 330 1487T447 1536ZM890 1536Q942 1536 977 1501T1013 1417Q1013 1348 965 1299T848 1250Q792 1250 758 1284T724 1375Q724 1439 773 1487T890 1536Z"  />
<glyph unicode="&#x131;" horiz-adv-x="491" d="M158 1088H422L276 0H10L158 1088Z"  />
<glyph unicode="&#x152;" horiz-adv-x="2171" d="M1420 1471H2162L2128 1212H1657L1618 906H2090L2055 646H1583L1531 258H2008L1971 0H1224L1241 120Q1138 37 1024 0T758 -37Q420 -37 243 161T66 645Q66 881 180 1081T492 1394T925 1508Q1070 1508 1182 1464T1401 1318L1420 1471ZM919 1247Q765 1247 633 1169T423 952T345 650Q345 457 461 339T768 221Q1006 221 1171 390T1336 810Q1336 1006 1219 1126T919 1247Z"  />
<glyph unicode="&#x153;" horiz-adv-x="2212" d="M2079 467H1210Q1211 373 1276 296T1481 218Q1637 218 1745 319L1981 198Q1896 92 1766 32T1477 -28Q1340 -28 1237 16T1045 158Q952 65 840 19T595 -28Q423 -28 318 30T145 210T78 483Q78 741 262 928T693 1116Q823 1116 928 1066T1112 915Q1206 1015 1324 1065T1568 1116Q1712 1116 1832 1047T2020 851T2087 572Q2087 530 2079 467ZM1814 661Q1785 758 1713 812T1544 866Q1341 866 1244 661H1814ZM677 864Q541 864 443 759T344 492Q344 365 415 292T608 218Q755 218 848 320Q954 435 954 596Q954 709 876 786T677 864Z"  />
<glyph unicode="&#x160;" horiz-adv-x="1065" d="M1017 1266L816 1088Q692 1248 585 1248Q532 1248 497 1217T462 1141Q462 1100 494 1050T688 829Q774 738 801 700Q866 612 894 536T923 380Q923 203 797 83T474 -37Q174 -37 -15 248L197 419Q325 224 474 224Q545 224 593 270T642 381Q642 432 613 485T444 685Q297 840 251 919Q189 1026 189 1129Q189 1265 278 1373Q390 1508 580 1508Q841 1508 1017 1266ZM764 1583H546L287 1865H585L675 1735L805 1865H1105L764 1583Z"  />
<glyph unicode="&#x161;" horiz-adv-x="901" d="M790 936L663 732Q614 805 560 839T459 874Q423 874 398 854T373 809Q373 785 393 761Q412 737 508 668Q661 558 709 480T758 309Q758 188 659 80T370 -28Q261 -28 172 16T-28 177L137 369Q249 221 382 221Q435 221 466 246T498 307Q498 335 474 364T343 470Q219 558 172 621Q106 709 106 807Q106 944 209 1030T454 1116Q553 1116 642 1069T790 936ZM623 1254H405L146 1536H444L534 1406L664 1536H964L623 1254Z"  />
<glyph unicode="&#x178;" horiz-adv-x="1270" d="M66 1471H345L575 882L993 1471H1310L682 588L603 0H327L408 588L66 1471ZM548 1865Q600 1865 635 1830T671 1746Q671 1677 623 1628T506 1579Q450 1579 416 1613T382 1704Q382 1768 431 1816T548 1865ZM991 1865Q1043 1865 1078 1830T1114 1746Q1114 1677 1066 1628T949 1579Q893 1579 859 1613T825 1704Q825 1768 874 1816T991 1865Z"  />
<glyph unicode="&#x17D;" horiz-adv-x="1024" d="M183 1471H1014L430 256H893L859 0H18L603 1212H147L183 1471ZM738 1637H520L261 1919H559L649 1789L779 1919H1079L738 1637Z"  />
<glyph unicode="&#x17E;" horiz-adv-x="942" d="M87 1088H949L392 246H902L868 0H-71L484 839H55L87 1088ZM540 1254H322L63 1536H361L451 1406L581 1536H881L540 1254Z"  />
<glyph unicode="&#x192;" horiz-adv-x="1147" d="M1054 1453L1021 1214Q939 1273 882 1273Q841 1273 817 1239T776 1083L755 934H979L945 700H719L613 -56Q593 -202 554 -275T452 -387T315 -426Q257 -426 197 -407T48 -336L82 -94Q177 -168 242 -168Q281 -168 303 -139T339 -7L446 700H219L253 934H480L513 1183Q539 1370 608 1453T807 1536Q872 1536 924 1520T1054 1453Z"  />
<glyph unicode="&#x2C6;" horiz-adv-x="1106" d="M570 1536H788L1047 1254H749L659 1384L529 1254H229L570 1536Z"  />
<glyph unicode="&#x2C7;" horiz-adv-x="1106" d="M725 1254H507L248 1536H546L636 1406L766 1536H1066L725 1254Z"  />
<glyph unicode="&#x2DA;" horiz-adv-x="737" d="M513 1731Q594 1731 646 1678T699 1538Q699 1439 622 1362T446 1285Q364 1285 311 1340T257 1478Q257 1582 332 1656T513 1731ZM494 1603Q454 1603 425 1573T395 1502Q395 1468 415 1447T466 1426Q503 1426 532 1456T561 1526Q561 1560 542 1581T494 1603Z"  />
<glyph unicode="&#x2DC;" horiz-adv-x="983" d="M248 1289L162 1454Q251 1511 312 1531T436 1551Q483 1551 558 1530Q677 1497 725 1497Q810 1497 904 1548L987 1393Q885 1321 847 1307Q786 1285 725 1285Q664 1285 577 1312Q506 1334 488 1338Q464 1342 434 1342Q336 1342 248 1289Z"  />
<glyph unicode="&#x2013;" horiz-adv-x="1024" d="M-12 469V711H1036V469H-12Z"  />
<glyph unicode="&#x2014;" horiz-adv-x="2048" d="M-12 469V711H2060V469H-12Z"  />
<glyph unicode="&#x2018;" horiz-adv-x="573" d="M471 949H220L237 1073Q254 1206 294 1295T442 1508L528 1433Q443 1322 412 1235H512L471 949Z"  />
<glyph unicode="&#x2019;" horiz-adv-x="573" d="M277 1508H528L511 1383Q494 1251 454 1162T306 949L220 1024Q305 1134 336 1222H236L277 1508Z"  />
<glyph unicode="&#x201A;" horiz-adv-x="573" d="M143 286H394L377 161Q360 29 320 -60T172 -273L86 -198Q171 -87 202 0H102L143 286Z"  />
<glyph unicode="&#x201C;" horiz-adv-x="983" d="M880 949H630L646 1073Q664 1206 704 1295T852 1508L938 1433Q853 1322 822 1235H922L880 949ZM474 949H223L240 1073Q257 1206 297 1295T445 1508L531 1433Q446 1322 415 1235H515L474 949Z"  />
<glyph unicode="&#x201D;" horiz-adv-x="983" d="M280 1508H531L514 1383Q497 1251 457 1162T309 949L223 1024Q308 1134 339 1222H239L280 1508ZM687 1508H938L921 1383Q904 1251 864 1162T716 949L630 1024Q715 1134 746 1222H645L687 1508Z"  />
<glyph unicode="&#x201E;" horiz-adv-x="983" d="M144 286H395L378 161Q361 29 321 -60T173 -273L87 -198Q172 -87 203 0H103L144 286ZM551 286H802L785 161Q768 29 728 -60T580 -273L494 -198Q579 -87 610 0H509L551 286Z"  />
<glyph unicode="&#x2020;" horiz-adv-x="1147" d="M546 1508H814L690 964L1150 1010L1110 741L667 794L546 -398H277L497 794L38 741L75 1010L519 964L546 1508Z"  />
<glyph unicode="&#x2021;" horiz-adv-x="1147" d="M548 1508H819L701 1041L1164 1088L1127 821L679 872V555L584 230L1052 286L1014 9L562 64L548 -398H276L391 64L-66 9L-26 286L416 230V555L509 872L51 821L89 1088L532 1041L548 1508Z"  />
<glyph unicode="&#x2022;" horiz-adv-x="1229" d="M614 1053Q741 1053 831 963T921 746Q921 618 831 528T614 438Q487 438 397 528T307 746Q307 873 397 963T614 1053Z"  />
<glyph unicode="&#x2026;" horiz-adv-x="2048" d="M1024 308Q1093 308 1142 259T1191 140Q1191 71 1142 22T1024 -28Q954 -28 905 21T856 140Q856 210 905 259T1024 308ZM341 308Q410 308 459 259T509 140Q509 71 460 22T341 -28Q271 -28 222 21T173 140Q173 210 222 259T341 308ZM1706 308Q1776 308 1825 259T1874 140Q1874 71 1825 22T1706 -28Q1637 -28 1588 21T1538 140Q1538 210 1587 259T1706 308Z"  />
<glyph unicode="&#x2030;" horiz-adv-x="2621" d="M1469 1536H1670L271 -100H69L1266 1305Q1197 1292 1129 1285T992 1278Q897 1278 788 1290Q801 1235 801 1195Q801 1095 748 1002T607 859T411 808Q274 808 187 893T100 1111Q100 1290 247 1413Q359 1508 478 1508Q521 1508 647 1484Q868 1442 1018 1442Q1136 1442 1249 1465T1469 1536ZM475 1331Q393 1331 337 1272T280 1126Q280 1065 321 1022T425 979Q503 979 560 1038T617 1182Q617 1249 578 1290T475 1331ZM1352 660Q1483 660 1569 573T1656 351Q1656 250 1604 158T1462 14T1267 -37Q1119 -37 1038 55T956 271Q956 367 1010 460T1157 607T1352 660ZM1329 488Q1249 488 1193 430T1137 287Q1137 218 1179 176T1285 134Q1360 134 1416 195T1473 340Q1473 408 1434 448T1329 488ZM2190 660Q2321 660 2407 573T2494 351Q2494 250 2442 158T2301 14T2105 -37Q1958 -37 1876 55T1794 271Q1794 367 1849 460T1996 607T2190 660ZM2167 488Q2087 488 2031 430T1975 287Q1975 218 2017 176T2124 134Q2198 134 2254 195T2311 340Q2311 408 2272 448T2167 488Z"  />
<glyph unicode="&#x2039;" horiz-adv-x="491" d="M254 1088H508L245 538L353 0H98L-9 538L254 1088Z"  />
<glyph unicode="&#x203A;" horiz-adv-x="491" d="M167 0H-86L177 550L69 1088H323L431 550L167 0Z"  />
<glyph unicode="&#x2044;" horiz-adv-x="328" d="M-401 -37L587 1508H758L-230 -37H-401Z"  />
<glyph unicode="&#x20AC;" horiz-adv-x="1147" d="M438 508Q573 219 907 219Q1008 219 1110 254V-12Q1016 -37 903 -37Q295 -37 145 508H10L61 672H127Q127 718 135 799H10L61 963H182Q285 1216 506 1360T1004 1505Q1101 1505 1169 1489L1092 1241Q1056 1249 1010 1249Q848 1249 709 1172T485 963H1004L952 799H420Q408 750 408 715V672H915L864 508H438Z"  />
<glyph unicode="&#x2122;" horiz-adv-x="2048" d="M1905 1471V631H1729V1322L1454 631H1366L1100 1322V631H924V1471H1191L1410 931L1640 1471H1905ZM809 1471V1324H547V631H365V1324H101V1471H809Z"  />


</font>
</defs>
</svg>
