<?xml  version="1.0" encoding="UTF-8"?>
<!DOCTYPE svg PUBLIC "-//W3C//DTD SVG 1.0//EN" "http://www.w3.org/TR/2001/REC-SVG-20010904/DTD/svg10.dtd" >
<svg xmlns="http://www.w3.org/2000/svg" >
<metadata>
<version>1.0</version>
<id><![CDATA[Century Gothic W01 Bold]]></id>
<vendor>Monotype Imaging Inc.</vendor>
<credits>
<name>Fonts.com WebFonts</name>
<URL>http://webfonts.fonts.com</URL>
<role>Home of the Web fonts</role>
</credits>
<license>
<URL>http://webfonts.fonts.com/Legal</URL>
</license>
<copyright><![CDATA[Copyright The Monotype Corporation. All rights reserved.]]></copyright>
<trademark><![CDATA[Century Gothic is a trademark of The Monotype Corporation in the United States and/or other countries.]]></trademark>
<licensee>
<name></name>
</licensee>
</metadata>
<defs >
<font horiz-adv-x="1154" id="3428a0e6-cb4d-408a-8331-cc78554ab49c">
<font-face font-family="" panose-1="2 11 7 2 2 2 2 2 2 4" ascent="2032" descent="-451" units-per-em="2048" alphabetic="0">
</font-face>
<missing-glyph horiz-adv-x="0" />

<glyph unicode="&#xA;" />
<glyph unicode="&#xD;" horiz-adv-x="573" />
<glyph unicode=" " horiz-adv-x="573" />
<glyph unicode="!" horiz-adv-x="573" d="M148 1508H424V433H148V1508ZM286 314Q357 314 407 264T458 143Q458 73 408 23T286 -28Q215 -28 165 22T115 143Q115 214 165 264T286 314Z"  />
<glyph unicode="&quot;" horiz-adv-x="737" d="M653 1004H497L442 1508H709L653 1004ZM242 1004H86L31 1508H298L242 1004Z"  />
<glyph unicode="#" horiz-adv-x="1229" d="M1110 678V479H879L808 0H607L677 479H486L416 0H216L286 479H61V678H317L347 866H124V1065H375L440 1508H635L573 1065H764L829 1508H1030L965 1065H1167V866H936L910 678H1110ZM736 866H542L516 678H705L736 866Z"  />
<glyph unicode="$" horiz-adv-x="1147" d="M1039 1301L846 1113Q714 1249 585 1249Q509 1249 462 1209T414 1115Q414 1070 456 1026Q497 981 622 930Q844 838 926 773T1052 617T1096 413Q1096 300 1049 204T928 52T715 -33V-300H527V-39Q396 -24 304 27Q178 97 70 213L260 408Q443 213 614 213Q701 213 763 273T826 416Q826 485 786 537Q745 589 628 643Q390 753 306 817T181 962T139 1134Q139 1285 249 1392T527 1508V1608H715V1495Q812 1472 879 1433T1039 1301Z"  />
<glyph unicode="%" horiz-adv-x="1761" d="M1352 1536H1554L388 -100H186L1183 1305Q1093 1290 1014 1283T868 1275Q799 1275 722 1282Q744 1212 744 1155Q744 1009 643 907T395 805Q248 805 145 907T42 1154Q42 1248 88 1328T217 1458T383 1508Q445 1508 554 1484Q747 1442 894 1442Q1027 1442 1141 1465T1352 1536ZM393 1325Q323 1325 274 1276T224 1157Q224 1087 273 1038T393 988Q463 988 512 1037T562 1157Q562 1227 513 1276T393 1325ZM1368 663Q1513 663 1616 560T1719 311Q1719 166 1616 63T1368 -40Q1222 -40 1120 63T1017 311Q1017 457 1119 560T1368 663ZM1367 482Q1296 482 1247 432T1197 312Q1197 242 1246 192T1367 142Q1437 142 1486 192T1536 312Q1536 382 1487 432T1367 482Z"  />
<glyph unicode="&amp;" horiz-adv-x="1393" d="M1090 578L1257 387L1181 318L1106 250L1342 0H1003L906 100Q674 -37 475 -37Q306 -37 202 62T97 316Q97 433 156 537T358 752Q217 943 217 1090Q217 1199 311 1305T576 1411Q749 1411 841 1306T934 1094Q934 1010 892 933T696 705Q875 494 927 442Q959 466 1090 578ZM558 902Q669 997 669 1070Q669 1108 644 1132T578 1156Q540 1156 514 1129T487 1066Q487 994 558 902ZM724 294Q647 370 507 546Q358 423 358 331Q358 288 398 252T501 216Q590 216 724 294Z"  />
<glyph unicode="&apos;" horiz-adv-x="451" d="M303 1004H147L92 1508H358L303 1004Z"  />
<glyph unicode="(" horiz-adv-x="778" d="M380 1536H726Q548 1335 461 1100T373 563Q373 236 470 -12Q546 -203 726 -426H380Q220 -172 157 49T93 571Q93 865 160 1086T380 1536Z"  />
<glyph unicode=")" horiz-adv-x="778" d="M399 -426H53Q231 -225 318 9T406 547Q406 874 309 1121Q233 1312 53 1536H399Q559 1282 622 1061T686 539Q686 245 619 24T399 -426Z"  />
<glyph unicode="*" horiz-adv-x="901" d="M331 1508H585L506 1207L732 1420L849 1200L544 1122L849 1035L717 818L499 1035L576 735H331L408 1035L185 818L52 1035L358 1122L52 1207L185 1430L408 1207L331 1508Z"  />
<glyph unicode="+" horiz-adv-x="1229" d="M490 860V1235H740V860H1114V610H740V236H490V610H115V860H490Z"  />
<glyph unicode="&#x2c;" horiz-adv-x="573" d="M269 277L464 179L217 -243L81 -178L269 277Z"  />
<glyph unicode="-" horiz-adv-x="860" d="M176 669H684V415H176V669Z"  />
<glyph unicode="." horiz-adv-x="573" d="M287 285Q352 285 398 240T444 129Q444 64 398 18T287 -28Q222 -28 176 18T130 129Q130 194 176 239T287 285Z"  />
<glyph unicode="/" horiz-adv-x="942" d="M44 -262L705 1513H899L237 -262H44Z"  />
<glyph unicode="0" horiz-adv-x="1147" d="M569 1508Q730 1508 846 1429T1026 1188T1090 735Q1090 442 1026 279T852 40T577 -37Q411 -37 298 40T121 274T57 721Q57 1126 182 1308Q321 1508 569 1508ZM576 1242Q505 1242 450 1197T366 1040T337 715Q337 436 403 330T576 223Q678 223 738 324Q811 446 811 732Q811 1022 746 1132T576 1242Z"  />
<glyph unicode="1" horiz-adv-x="1147" d="M337 1471H756V0H478V1208H175L337 1471Z"  />
<glyph unicode="2" horiz-adv-x="1147" d="M357 997H84Q95 1235 233 1371T589 1508Q723 1508 825 1452T989 1289T1051 1072Q1051 941 977 790T704 433L539 259H1063V0H44V134L499 598Q664 765 718 866T773 1050Q773 1135 717 1190T571 1246Q481 1246 421 1179T357 997Z"  />
<glyph unicode="3" horiz-adv-x="1147" d="M389 1108H120Q141 1271 237 1370Q371 1508 574 1508Q755 1508 877 1393T1000 1120Q1000 1022 947 941T791 810Q925 770 1000 671T1076 436Q1076 238 930 101T558 -37Q344 -37 209 92T61 445H338Q356 331 417 276T573 220Q671 220 735 283T800 437Q800 537 713 606T462 677V917Q563 925 612 948T689 1013T717 1100Q717 1160 675 1199T565 1239Q505 1239 456 1203T389 1108Z"  />
<glyph unicode="4" horiz-adv-x="1147" d="M678 1508H958V561H1089V302H958V0H684V302H42V561L678 1508ZM684 561V1054L348 561H684Z"  />
<glyph unicode="5" horiz-adv-x="1147" d="M342 1471H1031V1213H551L491 945Q516 952 540 955T586 959Q786 959 918 823T1051 473Q1051 258 905 111T548 -37Q360 -37 225 70T48 363H342Q376 294 431 259T554 223Q647 223 712 290T777 462Q777 564 717 629T570 695Q524 695 480 672T392 603L164 654L342 1471Z"  />
<glyph unicode="6" horiz-adv-x="1147" d="M594 1508L832 1389L575 889Q762 889 893 755T1024 422Q1024 230 890 97T565 -37Q366 -37 234 101T101 419Q101 487 121 556T216 768L594 1508ZM559 624Q481 624 428 568T375 426Q375 341 430 283T560 225Q638 225 694 282T750 426Q750 511 696 567T559 624Z"  />
<glyph unicode="7" horiz-adv-x="1147" d="M123 1471H1088V1324L424 -37L187 78L739 1208H123V1471Z"  />
<glyph unicode="8" horiz-adv-x="1147" d="M875 797Q975 733 1029 633T1084 415Q1084 288 1021 180T850 18T577 -37Q399 -37 294 15T126 174T63 415Q63 531 113 626T265 797Q199 864 166 939T132 1099Q132 1214 187 1308T343 1455T574 1508Q703 1508 801 1455T955 1305T1012 1095Q1012 1016 983 949T875 797ZM565 1238Q496 1238 452 1193T407 1076Q407 1005 454 957T570 909Q641 909 686 956T732 1078Q732 1149 686 1193T565 1238ZM576 648Q475 648 406 587T337 440Q337 351 402 290T573 228Q680 228 743 285T807 434Q807 525 741 586T576 648Z"  />
<glyph unicode="9" horiz-adv-x="1147" d="M553 -37L315 81L572 581Q385 581 254 715T123 1048Q123 1241 257 1374T582 1508Q781 1508 913 1370T1046 1051Q1046 983 1026 915T931 703L553 -37ZM588 846Q666 846 719 903T772 1044Q772 1130 717 1188T587 1246Q509 1246 453 1189T397 1045Q397 960 451 903T588 846Z"  />
<glyph unicode=":" horiz-adv-x="573" d="M287 1116Q352 1116 398 1070T444 959Q444 895 398 849T287 803Q222 803 176 848T130 959Q130 1024 176 1070T287 1116ZM287 285Q352 285 398 240T444 129Q444 64 398 18T287 -28Q222 -28 176 18T130 129Q130 194 176 239T287 285Z"  />
<glyph unicode=";" horiz-adv-x="573" d="M287 1116Q352 1116 398 1070T444 959Q444 894 398 849T287 803Q222 803 176 848T130 959Q130 1024 176 1070T287 1116ZM271 278L462 178L217 -243L80 -177L271 278Z"  />
<glyph unicode="&lt;" horiz-adv-x="1229" d="M1114 366V116L115 624V846L1114 1354V1105L402 735L1114 366Z"  />
<glyph unicode="=" horiz-adv-x="1229" d="M115 1074H1114V824H115V1074ZM115 646H1114V396H115V646Z"  />
<glyph unicode="&gt;" horiz-adv-x="1229" d="M115 1105V1354L1114 846V624L115 116V366L828 735L115 1105Z"  />
<glyph unicode="?" horiz-adv-x="1147" d="M362 1091H100Q98 1284 232 1410Q366 1536 585 1536Q726 1536 825 1484T983 1334T1043 1128Q1043 1069 1024 1012T964 895Q940 860 849 777Q762 698 740 666T703 579T684 429H413L412 474Q412 608 461 717T620 923Q726 1016 748 1051T770 1133Q770 1197 717 1241T573 1286Q481 1286 422 1232T362 1091ZM553 315Q626 315 677 265T729 144Q729 73 678 23T555 -28Q483 -28 433 22T382 144Q382 215 432 265T553 315Z"  />
<glyph unicode="@" horiz-adv-x="1515" d="M1228 301H1419Q1310 166 1226 105T1029 8T796 -27Q582 -27 399 77T112 362T8 754Q8 968 112 1152T397 1438T794 1540Q1094 1540 1300 1347T1507 898Q1507 710 1421 575T1185 363Q1071 305 994 305Q936 305 901 336Q874 358 872 412Q784 315 658 315Q516 315 422 416T327 685Q327 870 443 1015T751 1161Q830 1161 892 1129T998 1030L1019 1135H1215L1116 552Q1106 490 1106 482Q1106 471 1116 462T1141 452Q1176 452 1235 500T1332 640T1370 841Q1370 1003 1299 1127T1095 1322T790 1393Q609 1393 465 1313T238 1085T155 760Q155 579 239 432T474 203T812 121Q922 121 1020 162T1228 301ZM739 526Q826 526 883 597T940 759Q940 837 894 886T777 936Q695 936 634 869T573 705Q573 624 619 575T739 526Z"  />
<glyph unicode="A" horiz-adv-x="1515" d="M616 1471H900L1466 0H1175L1060 303H460L340 0H49L616 1471ZM760 1081L564 576H955L760 1081Z"  />
<glyph unicode="B" horiz-adv-x="1188" d="M168 0V1471H399Q600 1471 693 1445Q825 1410 903 1315T981 1091Q981 1007 946 939T830 810Q964 747 1026 653T1088 429Q1088 305 1024 203T859 51T580 0H168ZM448 1204V894H509Q611 894 660 937T710 1054Q710 1123 663 1163T520 1204H448ZM448 644V267H518Q692 267 752 311T813 439Q813 534 742 589T506 644H448Z"  />
<glyph unicode="C" horiz-adv-x="1597" d="M1520 1212L1324 1025Q1124 1236 874 1236Q663 1236 519 1092T374 737Q374 590 438 476T619 297T879 232Q1001 232 1102 277T1324 443L1514 245Q1351 86 1206 25T875 -37Q532 -37 314 180T95 738Q95 958 194 1129T479 1404T879 1508Q1061 1508 1229 1431T1520 1212Z"  />
<glyph unicode="D" horiz-adv-x="1434" d="M169 1471H501Q822 1471 978 1392T1235 1133T1336 715Q1336 545 1280 403T1124 166T908 36T506 0H169V1471ZM448 1201V274H578Q770 274 856 318T998 466T1053 722Q1053 956 922 1085Q804 1201 543 1201H448Z"  />
<glyph unicode="E" horiz-adv-x="1065" d="M169 1471H972V1197H447V931H972V662H447V275H972V0H169V1471Z"  />
<glyph unicode="F" horiz-adv-x="983" d="M172 1471H902V1198H449V931H902V662H449V0H172V1471Z"  />
<glyph unicode="G" horiz-adv-x="1720" d="M1526 1231L1329 1036Q1142 1234 893 1234Q676 1234 530 1090T383 740Q383 527 535 379T910 231Q1055 231 1154 292T1315 483H889V746H1629L1631 684Q1631 491 1531 318T1272 54T899 -37Q670 -37 491 62T207 346T102 743Q102 1035 295 1251Q524 1508 891 1508Q1083 1508 1250 1437Q1391 1377 1526 1231Z"  />
<glyph unicode="H" horiz-adv-x="1393" d="M167 1471H451V916H943V1471H1226V0H943V645H451V0H167V1471Z"  />
<glyph unicode="I" horiz-adv-x="573" d="M148 1471H426V0H148V1471Z"  />
<glyph unicode="J" horiz-adv-x="983" d="M534 1471H815V495Q815 262 778 168T656 19T452 -37Q209 -37 38 176L240 365Q307 289 354 263T445 237Q490 237 512 275T534 442V1471Z"  />
<glyph unicode="K" horiz-adv-x="1270" d="M170 1471H453V965L852 1471H1189L675 815L1239 0H907L453 653V0H170V1471Z"  />
<glyph unicode="L" horiz-adv-x="901" d="M168 1471H448V267H856V0H168V1471Z"  />
<glyph unicode="M" horiz-adv-x="1843" d="M310 1471H584L924 445L1269 1471H1539L1787 0H1517L1359 929L1046 0H799L490 929L329 0H56L310 1471Z"  />
<glyph unicode="N" horiz-adv-x="1515" d="M169 1471H437L1068 503V1471H1348V0H1079L449 965V0H169V1471Z"  />
<glyph unicode="O" horiz-adv-x="1720" d="M863 1508Q1175 1508 1399 1282T1624 731Q1624 409 1403 186T865 -37Q534 -37 315 192T96 736Q96 947 198 1124T478 1404T863 1508ZM860 1234Q656 1234 517 1092T378 731Q378 487 553 345Q689 234 865 234Q1064 234 1204 378T1344 733Q1344 943 1203 1088T860 1234Z"  />
<glyph unicode="P" horiz-adv-x="1147" d="M167 1471H464Q705 1471 811 1427T979 1283T1041 1044Q1041 890 961 788T742 646Q661 623 447 623V0H167V1471ZM447 896H536Q641 896 682 911T746 960T770 1044Q770 1129 704 1168Q656 1197 526 1197H447V896Z"  />
<glyph unicode="Q" horiz-adv-x="1720" d="M1430 215L1686 -116H1354L1224 51Q1063 -37 865 -37Q534 -37 315 191T96 736Q96 947 198 1123T478 1404T862 1508Q1175 1508 1399 1282T1624 731Q1624 432 1430 215ZM1255 441Q1344 573 1344 733Q1344 942 1203 1088T862 1234Q656 1234 517 1092T378 731Q378 487 553 345Q690 234 864 234Q964 234 1052 273L789 612H1123L1255 441Z"  />
<glyph unicode="R" horiz-adv-x="1188" d="M187 1471H484Q728 1471 831 1428T998 1283T1061 1044Q1061 899 992 802T782 654L1130 0H824L493 623H467V0H187V1471ZM467 896H555Q689 896 739 931T790 1047Q790 1095 765 1130T698 1181T544 1197H467V896Z"  />
<glyph unicode="S" horiz-adv-x="1065" d="M939 1271L732 1088Q623 1240 510 1240Q455 1240 420 1211T385 1144Q385 1107 410 1074Q444 1030 615 885Q775 751 809 716Q894 630 929 552T965 380Q965 199 840 81T514 -37Q357 -37 241 40T41 282L276 424Q382 229 520 229Q592 229 641 271T690 368Q690 418 653 468T490 621Q250 817 180 923T110 1136Q110 1289 226 1398T514 1508Q624 1508 723 1457T939 1271Z"  />
<glyph unicode="T" horiz-adv-x="860" d="M23 1471H836V1195H568V0H284V1195H23V1471Z"  />
<glyph unicode="U" horiz-adv-x="1311" d="M158 1471H439V519Q439 396 460 345T531 264T651 233Q725 233 778 267T852 353T873 554V1471H1154V594Q1154 372 1129 286T1034 120T871 2T657 -37Q497 -37 379 36T209 220T158 594V1471Z"  />
<glyph unicode="V" horiz-adv-x="1434" d="M56 1471H344L714 426L1089 1471H1377L847 0H577L56 1471Z"  />
<glyph unicode="W" horiz-adv-x="1843" d="M56 1471H332L544 532L807 1471H1040L1306 532L1516 1471H1792L1461 0H1192L921 951L655 0H389L56 1471Z"  />
<glyph unicode="X" horiz-adv-x="1393" d="M72 1471H387L695 1000L1006 1471H1321L853 759L1350 0H1035L695 517L358 0H41L538 759L72 1471Z"  />
<glyph unicode="Y" horiz-adv-x="1270" d="M63 1471H364L638 943L910 1471H1207L777 637V0H495V637L63 1471Z"  />
<glyph unicode="Z" horiz-adv-x="1024" d="M90 1471H980L455 269H946V0H47L570 1194H90V1471Z"  />
<glyph unicode="[" horiz-adv-x="655" d="M169 1508H607V1253H445V-144H607V-398H169V1508Z"  />
<glyph unicode="\" horiz-adv-x="1311" d="M1082 -262H889L228 1513H421L1082 -262Z"  />
<glyph unicode="]" horiz-adv-x="655" d="M486 -398H48V-143H210V1254H48V1508H486V-398Z"  />
<glyph unicode="^" horiz-adv-x="1229" d="M497 1471H729L1119 366H877L615 1114L352 366H109L497 1471Z"  />
<glyph unicode="_" horiz-adv-x="1024" d="M-12 -154H1036V-256H-12V-154Z"  />
<glyph unicode="`" horiz-adv-x="860" d="M382 1679L621 1287H425L59 1679H382Z"  />
<glyph unicode="a" horiz-adv-x="1352" d="M942 1088H1214V0H942V115Q862 39 782 6T607 -28Q396 -28 242 135T88 542Q88 794 237 955T599 1116Q697 1116 783 1079T942 968V1088ZM655 864Q528 864 444 775T360 545Q360 404 445 313T656 222Q785 222 870 311T955 546Q955 688 870 776T655 864Z"  />
<glyph unicode="b" horiz-adv-x="1352" d="M409 1508V968Q483 1042 569 1079T753 1116Q966 1116 1115 955T1264 542Q1264 299 1110 136T745 -28Q651 -28 570 5T409 115V0H138V1508H409ZM696 864Q567 864 482 776T397 546Q397 401 482 312T696 222Q821 222 906 313T992 545Q992 685 908 774T696 864Z"  />
<glyph unicode="c" horiz-adv-x="1311" d="M1203 868L976 743Q912 810 850 836T703 862Q550 862 456 771T361 536Q361 397 452 309T691 221Q874 221 976 346L1191 199Q1016 -28 697 -28Q410 -28 248 142T85 540Q85 698 164 831T384 1040T701 1116Q863 1116 992 1052T1203 868Z"  />
<glyph unicode="d" horiz-adv-x="1352" d="M942 1508H1214V0H942V115Q862 39 782 6T607 -28Q396 -28 242 135T88 542Q88 794 237 955T599 1116Q697 1116 783 1079T942 968V1508ZM655 864Q528 864 444 775T360 545Q360 404 445 313T656 222Q785 222 870 311T955 546Q955 688 870 776T655 864Z"  />
<glyph unicode="e" horiz-adv-x="1311" d="M1228 465H351Q370 349 452 281T663 212Q816 212 926 319L1156 211Q1070 89 950 31T665 -28Q409 -28 248 133T87 538Q87 787 247 951T650 1116Q907 1116 1068 952T1229 517L1228 465ZM954 680Q927 771 848 828T663 885Q549 885 463 821Q409 781 363 680H954Z"  />
<glyph unicode="f" horiz-adv-x="573" d="M8 1088H105Q106 1302 112 1341Q123 1431 187 1483T370 1536Q455 1536 562 1497V1289Q503 1306 465 1306Q417 1306 395 1286Q379 1271 379 1224L378 1088H551V856H378V0H105V856H8V1088Z"  />
<glyph unicode="g" horiz-adv-x="1352" d="M942 1088H1214V156Q1214 -120 1103 -250Q954 -426 654 -426Q494 -426 385 -386T201 -269T90 -80H391Q431 -126 494 -149T643 -173Q753 -173 820 -139T914 -51T942 135Q870 63 791 32T612 0Q393 0 242 158T91 558Q91 817 251 974Q396 1116 597 1116Q691 1116 774 1082T942 968V1088ZM659 861Q530 861 446 775T362 557Q362 421 448 334T664 247Q791 247 873 332T956 555Q956 691 873 776T659 861Z"  />
<glyph unicode="h" horiz-adv-x="1229" d="M139 1508H410V978Q490 1047 571 1081T735 1116Q897 1116 1008 1004Q1103 907 1103 719V0H834V477Q834 666 816 733T755 833T647 866Q564 866 505 811T422 661Q410 612 410 437V0H139V1508Z"  />
<glyph unicode="i" horiz-adv-x="491" d="M245 1536Q317 1536 368 1484T420 1358Q420 1285 369 1234T247 1182Q174 1182 123 1234T71 1362Q71 1434 122 1485T245 1536ZM108 1088H382V0H108V1088Z"  />
<glyph unicode="j" horiz-adv-x="532" d="M266 1536Q339 1536 390 1484T442 1358Q442 1285 391 1233T269 1181Q196 1181 145 1234T93 1362Q93 1434 143 1485T266 1536ZM130 1088H403V-36Q403 -191 373 -267T276 -385T117 -426Q35 -426 -87 -385V-170Q-23 -201 26 -201Q78 -201 104 -170T130 -56V1088Z"  />
<glyph unicode="k" horiz-adv-x="1188" d="M140 1508H413V639L815 1088H1157L689 566L1214 0H875L413 501V0H140V1508Z"  />
<glyph unicode="l" horiz-adv-x="491" d="M109 1508H382V0H109V1508Z"  />
<glyph unicode="m" horiz-adv-x="1925" d="M136 1088H410V963Q480 1040 565 1078T752 1116Q854 1116 936 1066T1068 920Q1133 1016 1227 1066T1434 1116Q1550 1116 1638 1062T1764 921T1803 638V0H1528V552Q1528 737 1482 802T1344 868Q1274 868 1219 828T1136 718T1109 491V0H834V527Q834 673 813 738T748 836T644 868Q576 868 521 828T438 714T410 484V0H136V1088Z"  />
<glyph unicode="n" horiz-adv-x="1229" d="M138 1088H410V977Q503 1055 578 1085T733 1116Q895 1116 1008 1003Q1103 907 1103 719V0H833V477Q833 672 816 736T755 833T647 867Q564 867 505 812T422 658Q410 607 410 437V0H138V1088Z"  />
<glyph unicode="o" horiz-adv-x="1311" d="M649 1116Q803 1116 938 1039T1150 830T1226 545Q1226 391 1150 257T941 48T650 -28Q416 -28 251 138T85 543Q85 798 272 968Q436 1116 649 1116ZM653 859Q526 859 442 771T357 544Q357 402 440 314T652 226Q780 226 865 315T950 544Q950 684 867 771T653 859Z"  />
<glyph unicode="p" horiz-adv-x="1352" d="M409 1088V968Q483 1042 569 1079T753 1116Q966 1116 1115 955T1264 542Q1264 299 1110 136T745 -28Q651 -28 570 5T409 115V-398H138V1088H409ZM696 864Q567 864 482 776T397 546Q397 401 482 312T696 222Q821 222 906 313T992 545Q992 685 908 774T696 864Z"  />
<glyph unicode="q" horiz-adv-x="1352" d="M942 1088H1214V-398H942V115Q862 39 782 6T607 -28Q396 -28 242 135T88 542Q88 794 237 955T599 1116Q697 1116 783 1079T942 968V1088ZM655 864Q528 864 444 775T360 545Q360 404 445 313T656 222Q785 222 870 311T955 546Q955 688 870 776T655 864Z"  />
<glyph unicode="r" horiz-adv-x="655" d="M74 1088H308V951Q346 1032 409 1074T547 1116Q600 1116 658 1088L573 853Q525 877 494 877Q431 877 388 799T344 493L345 440V0H74V1088Z"  />
<glyph unicode="s" horiz-adv-x="901" d="M804 936L635 767Q532 869 448 869Q402 869 376 850T350 801Q350 779 366 761T448 710L548 660Q706 582 765 501T824 311Q824 166 718 69T432 -28Q194 -28 52 158L220 341Q268 285 332 251T447 216Q501 216 534 242T567 302Q567 365 448 425L356 471Q92 604 92 804Q92 933 191 1024T446 1116Q552 1116 645 1070T804 936Z"  />
<glyph unicode="t" horiz-adv-x="614" d="M171 1489H443V1088H605V853H443V0H171V853H31V1088H171V1489Z"  />
<glyph unicode="u" horiz-adv-x="1229" d="M137 1088H413V564Q413 411 434 352T501 259T616 226Q684 226 731 258T802 354Q819 401 819 555V1088H1093V627Q1093 342 1048 237Q993 109 886 41T614 -28Q435 -28 325 52T169 275Q137 374 137 635V1088Z"  />
<glyph unicode="v" horiz-adv-x="1147" d="M21 1088H299L574 446L848 1088H1125L662 0H485L21 1088Z"  />
<glyph unicode="w" horiz-adv-x="1638" d="M17 1088H284L503 469L739 1088H902L1133 476L1352 1088H1621L1224 0H1051L819 620L580 0H409L17 1088Z"  />
<glyph unicode="x" horiz-adv-x="1147" d="M40 1088H357L570 791L786 1088H1100L728 573L1146 0H829L570 357L314 0H1L413 573L40 1088Z"  />
<glyph unicode="y" horiz-adv-x="1188" d="M17 1088H296L579 405L891 1088H1171L489 -398H207L431 81L17 1088Z"  />
<glyph unicode="z" horiz-adv-x="942" d="M91 1088H926L436 231H898V0H16L508 857H91V1088Z"  />
<glyph unicode="{" horiz-adv-x="696" d="M13 390V630Q102 634 144 665T209 762T232 985Q232 1183 250 1255T307 1371T423 1443T644 1471H697V1231Q590 1231 557 1220T509 1182T493 1086Q493 960 481 805Q473 704 426 624Q391 565 305 509Q378 467 421 403T478 239Q484 196 492 -41Q495 -128 503 -149Q516 -180 551 -196T697 -212V-451H644Q499 -451 429 -428T315 -359T252 -244T232 -4Q232 186 212 252T148 352T13 390Z"  />
<glyph unicode="|" horiz-adv-x="1229" d="M536 1508H694V-398H536V1508Z"  />
<glyph unicode="}" horiz-adv-x="696" d="M683 630V390Q594 385 552 355T486 258T463 34Q463 -164 446 -236T389 -351T273 -423T52 -451H-1V-212Q106 -212 138 -201T187 -163T203 -67Q203 60 215 215Q222 316 269 395Q305 455 391 510Q318 552 275 616T218 781Q212 823 204 1060Q201 1148 192 1168Q179 1200 144 1215T-1 1231V1471H52Q197 1471 266 1447T380 1378T444 1263T464 1023Q464 833 484 767T548 668T683 630Z"  />
<glyph unicode="~" horiz-adv-x="1229" d="M100 564V883Q252 957 350 957Q414 957 490 936T694 853Q777 812 803 805Q838 795 872 795Q983 795 1130 908V586Q1004 514 883 514Q817 514 750 532T532 617Q436 659 404 667T338 676Q288 676 237 654T100 564Z"  />
<glyph unicode="&#xA0;" horiz-adv-x="573" />
<glyph unicode="&#xA1;" horiz-adv-x="573" d="M286 1138Q357 1138 407 1088T458 967Q458 896 408 846T286 796Q215 796 165 846T115 967Q115 1038 165 1088T286 1138ZM424 -398H149V677H424V-398Z"  />
<glyph unicode="&#xA2;" horiz-adv-x="1147" d="M821 1326L976 1259L882 1049Q992 980 1051 885L828 753Q805 784 776 812L521 235Q576 214 628 214Q753 214 849 312L1024 142Q938 54 838 13T609 -28Q514 -28 419 0L308 -243L155 -177L275 87Q84 275 84 545Q84 713 154 843T349 1044T629 1116Q672 1116 725 1108L821 1326ZM619 870Q496 863 426 778T355 540Q355 442 393 357L619 870Z"  />
<glyph unicode="&#xA3;" horiz-adv-x="1147" d="M1012 1096H731Q700 1251 586 1251Q525 1251 484 1208T443 1094Q443 1053 471 980L502 899H842V647H575Q587 578 587 538Q587 423 519 255Q558 250 658 232Q692 226 713 226Q756 226 784 252Q822 286 836 336H1095Q1091 237 1038 150T896 13T710 -37Q667 -37 567 -23Q413 0 337 0Q239 0 143 -34L49 204Q134 238 208 248Q263 344 283 411T303 553Q303 594 294 647H54V899H208Q161 999 161 1100Q161 1222 210 1310T364 1453T590 1508Q710 1508 808 1455T959 1309T1012 1096Z"  />
<glyph unicode="&#xA4;" horiz-adv-x="1229" d="M96 425L199 529Q147 608 127 674T107 818Q107 901 128 969T201 1110L95 1214L216 1338L322 1232Q392 1281 466 1305T618 1329Q693 1329 764 1307T909 1235L1014 1338L1133 1214L1029 1113Q1082 1041 1104 971T1127 818Q1127 737 1105 669T1032 529L1136 425L1017 304L912 407Q839 354 768 331T616 307Q537 307 466 330T321 407L216 304L96 425ZM303 816Q303 684 395 591T617 498Q746 498 838 591T930 819Q930 952 839 1045T618 1139Q489 1139 396 1045T303 816Z"  />
<glyph unicode="&#xA5;" horiz-adv-x="1147" d="M48 1471H339L574 948L809 1471H1100L789 779H1053V616H715V488H1053V319H715V0H432V319H93V488H432V616H93V779H358L48 1471Z"  />
<glyph unicode="&#xA6;" horiz-adv-x="1229" d="M537 744V1508H695V799L537 744ZM537 -398V512L695 567V-398H537Z"  />
<glyph unicode="&#xA7;" horiz-adv-x="1147" d="M985 1152H720Q690 1285 559 1285Q506 1285 477 1262T448 1204Q448 1168 471 1139Q502 1101 616 1023L807 892Q936 804 985 721T1034 538Q1034 433 979 352T820 231Q913 154 951 78T990 -89Q990 -233 882 -329T584 -426Q406 -426 300 -330T168 -48H427Q454 -118 492 -147T585 -176Q646 -176 680 -146T714 -75Q714 -50 694 -21Q673 7 605 55L329 247Q200 338 154 418T107 603Q107 715 163 799T306 916Q237 972 203 1041T168 1191Q168 1335 279 1435T567 1536Q736 1536 855 1425T985 1152ZM463 796Q401 769 372 728T342 643Q342 596 384 547Q407 519 507 449L660 342Q741 380 761 407Q792 448 792 493Q792 531 762 571T625 684L463 796Z"  />
<glyph unicode="&#xA8;" horiz-adv-x="1024" d="M290 1573Q350 1573 392 1531T434 1430Q434 1370 392 1328T290 1286Q231 1286 189 1328T147 1430Q147 1489 189 1531T290 1573ZM733 1573Q793 1573 835 1531T877 1430Q877 1370 835 1328T733 1286Q674 1286 632 1328T590 1430Q590 1489 632 1531T733 1573Z"  />
<glyph unicode="&#xA9;" horiz-adv-x="1515" d="M1524 757Q1524 552 1422 375T1141 95T758 -8Q553 -8 375 94T95 374T-8 757Q-8 961 94 1138T374 1417T758 1520Q964 1520 1141 1418T1421 1138T1524 757ZM1366 754Q1366 1007 1189 1184T759 1362Q595 1362 454 1281T231 1060T150 758Q150 597 231 458T453 237T757 156Q920 156 1062 237T1285 456T1366 754ZM980 616H1156Q1139 485 1038 400T790 315Q602 315 482 441T361 770Q361 966 480 1088T784 1210Q933 1210 1029 1135T1156 917H980Q963 991 912 1031T786 1071Q675 1071 603 991T531 772Q531 630 607 543T790 455Q865 455 918 500T980 616Z"  />
<glyph unicode="&#xAA;" horiz-adv-x="737" d="M459 1491H659V810H459V866Q426 830 388 812T306 794Q206 794 127 892T47 1150Q47 1314 124 1411T302 1508Q346 1508 385 1490T459 1433V1491ZM356 1329Q313 1329 281 1283T248 1152Q248 1067 285 1013Q314 972 357 972Q400 972 433 1018T466 1152Q466 1238 433 1283T356 1329Z"  />
<glyph unicode="&#xAB;" horiz-adv-x="942" d="M208 1088H463L278 540L463 0H208L25 540L208 1088ZM662 1088H917L732 540L917 0H662L478 540L662 1088Z"  />
<glyph unicode="&#xAC;" horiz-adv-x="1229" d="M115 1074H1114V396L865 397V825L115 824V1074Z"  />
<glyph unicode="&#xAD;" horiz-adv-x="860" d="M176 669H684V415H176V669Z"  />
<glyph unicode="&#xAE;" horiz-adv-x="1515" d="M1524 755Q1524 550 1422 374T1142 95T758 -8Q553 -8 375 94T95 373T-8 756Q-8 961 94 1138T374 1417T758 1520Q964 1520 1141 1418T1421 1138T1524 755ZM1366 753Q1366 1007 1189 1184T760 1362Q507 1362 329 1185T150 758Q150 596 230 457T453 237T758 156Q920 156 1062 236T1285 455T1366 753ZM441 1173H812Q929 1173 984 1147T1072 1065T1106 930Q1106 863 1086 821T1008 737Q1054 711 1071 679T1092 564Q1099 408 1105 383T1141 334H931Q917 368 913 391T908 470Q905 581 896 607T865 646T774 659H625V334H441V1173ZM625 1012V813H779Q868 813 897 837T926 914Q926 967 898 989T780 1012H625Z"  />
<glyph unicode="&#xAF;" horiz-adv-x="1024" d="M-12 1685H1036V1583H-12V1685Z"  />
<glyph unicode="&#xB0;" horiz-adv-x="819" d="M755 1164Q755 1019 654 920T409 820Q265 820 165 920T65 1167Q65 1308 167 1408T412 1508Q554 1508 654 1408T755 1164ZM636 1162Q636 1261 571 1328T413 1395Q318 1395 251 1328T184 1164Q184 1070 251 1001T412 932Q504 932 570 999T636 1162Z"  />
<glyph unicode="&#xB1;" horiz-adv-x="1124" d="M437 1079V1454H687V1079H1061V829H687V455H437V829H62V1079H437ZM62 250H1061V0H62V250Z"  />
<glyph unicode="&#xB2;" horiz-adv-x="688" d="M227 1227H42Q48 1359 130 1433T353 1508Q492 1508 564 1434T637 1278Q637 1211 593 1134T429 952L359 890H644V733H19V821L291 1053Q388 1136 418 1183T448 1267Q448 1303 420 1326T342 1350Q290 1350 259 1318T227 1227Z"  />
<glyph unicode="&#xB3;" horiz-adv-x="688" d="M244 1282H61Q84 1390 140 1439Q218 1508 342 1508Q459 1508 532 1448T606 1307Q606 1211 513 1158Q579 1131 616 1079T654 966Q654 865 566 790T332 715Q196 715 115 788T30 981H214Q233 870 340 870Q395 870 430 897T465 961Q465 1060 268 1066V1204Q356 1204 389 1226T422 1286Q422 1314 402 1333T347 1353Q280 1353 244 1282Z"  />
<glyph unicode="&#xB4;" horiz-adv-x="860" d="M478 1679H801L435 1287H239L478 1679Z"  />
<glyph unicode="&#xB5;" horiz-adv-x="1180" d="M88 -398V1088H365V517Q365 390 389 334T470 240T592 203Q657 203 707 237T784 335T811 525V1088H1091V0H811V127Q768 43 713 7T588 -29Q520 -29 465 5T365 119V-398H88Z"  />
<glyph unicode="&#xB6;" horiz-adv-x="1229" d="M552 -379V710Q368 711 266 815T163 1104Q163 1307 274 1410T636 1513H1056V1397H974V-379H835V1397H691V-379H552Z"  />
<glyph unicode="&#xB7;" horiz-adv-x="682" d="M696 897Q756 897 798 856T840 754Q840 695 798 653T696 611Q637 611 595 653T553 754Q553 814 595 855T696 897Z"  />
<glyph unicode="&#xB8;" horiz-adv-x="696" d="M262 16H431L419 -30Q486 -45 524 -88T563 -184Q563 -265 495 -323T306 -381Q208 -381 84 -335L120 -206Q192 -229 261 -229Q312 -229 337 -210T362 -158Q362 -132 343 -117T283 -102L227 -104L262 16Z"  />
<glyph unicode="&#xB9;" horiz-adv-x="688" d="M199 1489H464V733H276V1332H83L199 1489Z"  />
<glyph unicode="&#xBA;" horiz-adv-x="737" d="M365 1508Q499 1508 596 1406T693 1151Q693 997 598 896T366 794Q235 794 140 896T45 1150Q45 1302 141 1405T365 1508ZM368 1326Q319 1326 283 1279T247 1151Q247 1067 282 1021T368 974Q418 974 454 1021T491 1151Q491 1233 455 1279T368 1326Z"  />
<glyph unicode="&#xBB;" horiz-adv-x="942" d="M733 0H478L664 548L478 1088H733L917 548L733 0ZM280 0H25L210 548L25 1088H280L463 548L280 0Z"  />
<glyph unicode="&#xBC;" horiz-adv-x="1720" d="M207 1489H472V733H284V1332H91L207 1489ZM462 -37L1088 1508H1259L633 -37H462ZM1424 776H1606V291H1684V151H1606V1H1437V151H1042V299L1424 776ZM1437 291V560L1220 291H1437Z"  />
<glyph unicode="&#xBD;" horiz-adv-x="1720" d="M207 1489H472V733H284V1332H91L207 1489ZM426 -37L1052 1508H1223L597 -37H426ZM1251 495H1066Q1072 627 1154 701T1377 776Q1516 776 1588 702T1661 546Q1661 479 1617 402T1453 220L1383 158H1668V1H1043V89L1315 321Q1412 404 1442 451T1472 535Q1472 571 1444 594T1366 618Q1314 618 1283 586T1251 495Z"  />
<glyph unicode="&#xBE;" horiz-adv-x="1720" d="M252 1282H69Q92 1390 148 1439Q226 1508 350 1508Q467 1508 540 1448T614 1307Q614 1211 521 1158Q587 1131 624 1079T662 966Q662 865 574 790T340 715Q204 715 123 788T38 981H222Q241 870 348 870Q403 870 438 897T473 961Q473 1060 276 1066V1204Q364 1204 397 1226T430 1286Q430 1314 410 1333T355 1353Q288 1353 252 1282ZM486 -37L1112 1508H1283L657 -37H486ZM1424 776H1606V291H1684V151H1606V1H1437V151H1042V299L1424 776ZM1437 291V560L1220 291H1437Z"  />
<glyph unicode="&#xBF;" horiz-adv-x="1147" d="M588 795Q515 795 464 845T412 966Q412 1037 463 1087T586 1138Q657 1138 708 1088T759 966Q759 895 709 845T588 795ZM779 18H1041Q1043 -174 909 -300T556 -426Q415 -426 316 -375T157 -225T98 -18Q98 41 116 98T176 215Q201 250 292 333Q378 412 400 444T438 530T457 681H727L729 636Q729 502 680 393T521 187Q415 94 393 59T371 -23Q371 -87 424 -131T568 -176Q660 -176 719 -122T779 18Z"  />
<glyph unicode="&#xC0;" horiz-adv-x="1515" d="M616 1471H900L1466 0H1175L1060 303H460L340 0H49L616 1471ZM760 1081L564 576H955L760 1081ZM709 1977L948 1585H752L386 1977H709Z"  />
<glyph unicode="&#xC1;" horiz-adv-x="1515" d="M616 1471H900L1466 0H1175L1060 303H460L340 0H49L616 1471ZM760 1081L564 576H955L760 1081ZM805 1977H1128L762 1585H566L805 1977Z"  />
<glyph unicode="&#xC2;" horiz-adv-x="1515" d="M616 1471H900L1466 0H1175L1060 303H460L340 0H49L616 1471ZM760 1081L564 576H955L760 1081ZM349 1585L649 1868H868L1166 1585H868L760 1716L649 1585H349Z"  />
<glyph unicode="&#xC3;" horiz-adv-x="1515" d="M616 1471H900L1466 0H1175L1060 303H460L340 0H49L616 1471ZM760 1081L564 576H955L760 1081ZM451 1589L341 1754Q469 1853 600 1853Q649 1853 768 1819Q849 1797 897 1797Q981 1797 1071 1849L1175 1693Q1049 1585 931 1585Q868 1585 780 1612Q708 1633 689 1637Q663 1641 627 1641Q539 1641 451 1589Z"  />
<glyph unicode="&#xC4;" horiz-adv-x="1515" d="M616 1471H900L1466 0H1175L1060 303H460L340 0H49L616 1471ZM760 1081L564 576H955L760 1081ZM535 1871Q595 1871 637 1829T679 1728Q679 1668 637 1626T535 1584Q476 1584 434 1626T392 1728Q392 1787 434 1829T535 1871ZM978 1871Q1038 1871 1080 1829T1122 1728Q1122 1668 1080 1626T978 1584Q919 1584 877 1626T835 1728Q835 1787 877 1829T978 1871Z"  />
<glyph unicode="&#xC5;" horiz-adv-x="1515" d="M616 1471H900L1466 0H1175L1060 303H460L340 0H49L616 1471ZM760 1081L564 576H955L760 1081ZM757 2032Q848 2032 912 1967T976 1809Q976 1716 912 1651T757 1585Q667 1585 603 1650T538 1809Q538 1901 602 1966T757 2032ZM757 1903Q723 1903 699 1877T675 1814Q675 1776 699 1750T757 1724Q790 1724 814 1750T839 1814Q839 1851 815 1877T757 1903Z"  />
<glyph unicode="&#xC6;" horiz-adv-x="1843" d="M774 1471H1737V1197H1220V930H1737V661H1220V274H1737V0H941V304H492L345 0H57L774 1471ZM941 579V1223L624 579H941Z"  />
<glyph unicode="&#xC7;" horiz-adv-x="1597" d="M1520 1212L1324 1025Q1124 1236 874 1236Q663 1236 519 1092T374 737Q374 590 438 476T619 297T879 232Q1001 232 1102 277T1324 443L1514 245Q1351 86 1206 25T875 -37Q532 -37 314 180T95 738Q95 958 194 1129T479 1404T879 1508Q1061 1508 1229 1431T1520 1212ZM713 16H882L870 -30Q937 -45 975 -88T1014 -184Q1014 -265 946 -323T757 -381Q659 -381 535 -335L571 -206Q643 -229 712 -229Q763 -229 788 -210T813 -158Q813 -132 794 -117T734 -102L678 -104L713 16Z"  />
<glyph unicode="&#xC8;" horiz-adv-x="1065" d="M169 1471H972V1197H447V931H972V662H447V275H972V0H169V1471ZM520 1977L759 1585H563L197 1977H520Z"  />
<glyph unicode="&#xC9;" horiz-adv-x="1065" d="M169 1471H972V1197H447V931H972V662H447V275H972V0H169V1471ZM617 1977H940L574 1585H378L617 1977Z"  />
<glyph unicode="&#xCA;" horiz-adv-x="1065" d="M169 1471H972V1197H447V931H972V662H447V275H972V0H169V1471ZM160 1585L460 1868H679L977 1585H679L571 1716L460 1585H160Z"  />
<glyph unicode="&#xCB;" horiz-adv-x="1065" d="M169 1471H972V1197H447V931H972V662H447V275H972V0H169V1471ZM347 1871Q407 1871 449 1829T491 1728Q491 1668 449 1626T347 1584Q288 1584 246 1626T204 1728Q204 1787 246 1829T347 1871ZM790 1871Q850 1871 892 1829T934 1728Q934 1668 892 1626T790 1584Q731 1584 689 1626T647 1728Q647 1787 689 1829T790 1871Z"  />
<glyph unicode="&#xCC;" horiz-adv-x="573" d="M148 1471H426V0H148V1471ZM240 1977L479 1585H283L-83 1977H240Z"  />
<glyph unicode="&#xCD;" horiz-adv-x="573" d="M148 1471H426V0H148V1471ZM336 1977H659L293 1585H97L336 1977Z"  />
<glyph unicode="&#xCE;" horiz-adv-x="573" d="M148 1471H426V0H148V1471ZM-121 1585L179 1868H398L696 1585H398L290 1716L179 1585H-121Z"  />
<glyph unicode="&#xCF;" horiz-adv-x="573" d="M148 1471H426V0H148V1471ZM66 1871Q126 1871 168 1829T210 1728Q210 1668 168 1626T66 1584Q7 1584 -35 1626T-77 1728Q-77 1787 -35 1829T66 1871ZM509 1871Q569 1871 611 1829T653 1728Q653 1668 611 1626T509 1584Q450 1584 408 1626T366 1728Q366 1787 408 1829T509 1871Z"  />
<glyph unicode="&#xD0;" horiz-adv-x="1520" d="M219 1471H576Q896 1471 1052 1392T1309 1133T1410 715Q1410 545 1354 403T1198 166T982 36T580 0H219V654H50V817H219V1471ZM498 1201V817H800V654H498V274H652Q844 274 930 318T1072 466T1127 722Q1127 956 996 1085Q878 1201 617 1201H498Z"  />
<glyph unicode="&#xD1;" horiz-adv-x="1515" d="M169 1471H437L1068 503V1471H1348V0H1079L449 965V0H169V1471ZM452 1589L342 1754Q470 1853 601 1853Q650 1853 769 1819Q850 1797 898 1797Q982 1797 1072 1849L1176 1693Q1050 1585 932 1585Q869 1585 781 1612Q709 1633 690 1637Q664 1641 628 1641Q540 1641 452 1589Z"  />
<glyph unicode="&#xD2;" horiz-adv-x="1720" d="M863 1508Q1175 1508 1399 1282T1624 731Q1624 409 1403 186T865 -37Q534 -37 315 192T96 736Q96 947 198 1124T478 1404T863 1508ZM860 1234Q656 1234 517 1092T378 731Q378 487 553 345Q689 234 865 234Q1064 234 1204 378T1344 733Q1344 943 1203 1088T860 1234ZM812 1977L1051 1585H855L489 1977H812Z"  />
<glyph unicode="&#xD3;" horiz-adv-x="1720" d="M863 1508Q1175 1508 1399 1282T1624 731Q1624 409 1403 186T865 -37Q534 -37 315 192T96 736Q96 947 198 1124T478 1404T863 1508ZM860 1234Q656 1234 517 1092T378 731Q378 487 553 345Q689 234 865 234Q1064 234 1204 378T1344 733Q1344 943 1203 1088T860 1234ZM908 1977H1231L865 1585H669L908 1977Z"  />
<glyph unicode="&#xD4;" horiz-adv-x="1720" d="M863 1508Q1175 1508 1399 1282T1624 731Q1624 409 1403 186T865 -37Q534 -37 315 192T96 736Q96 947 198 1124T478 1404T863 1508ZM860 1234Q656 1234 517 1092T378 731Q378 487 553 345Q689 234 865 234Q1064 234 1204 378T1344 733Q1344 943 1203 1088T860 1234ZM451 1585L751 1868H970L1268 1585H970L862 1716L751 1585H451Z"  />
<glyph unicode="&#xD5;" horiz-adv-x="1720" d="M863 1508Q1175 1508 1399 1282T1624 731Q1624 409 1403 186T865 -37Q534 -37 315 192T96 736Q96 947 198 1124T478 1404T863 1508ZM860 1234Q656 1234 517 1092T378 731Q378 487 553 345Q689 234 865 234Q1064 234 1204 378T1344 733Q1344 943 1203 1088T860 1234ZM553 1589L443 1754Q571 1853 702 1853Q751 1853 870 1819Q951 1797 999 1797Q1083 1797 1173 1849L1277 1693Q1151 1585 1033 1585Q970 1585 882 1612Q810 1633 791 1637Q765 1641 729 1641Q641 1641 553 1589Z"  />
<glyph unicode="&#xD6;" horiz-adv-x="1720" d="M863 1508Q1175 1508 1399 1282T1624 731Q1624 409 1403 186T865 -37Q534 -37 315 192T96 736Q96 947 198 1124T478 1404T863 1508ZM860 1234Q656 1234 517 1092T378 731Q378 487 553 345Q689 234 865 234Q1064 234 1204 378T1344 733Q1344 943 1203 1088T860 1234ZM638 1871Q698 1871 740 1829T782 1728Q782 1668 740 1626T638 1584Q579 1584 537 1626T495 1728Q495 1787 537 1829T638 1871ZM1081 1871Q1141 1871 1183 1829T1225 1728Q1225 1668 1183 1626T1081 1584Q1022 1584 980 1626T938 1728Q938 1787 980 1829T1081 1871Z"  />
<glyph unicode="&#xD7;" horiz-adv-x="1229" d="M613 588L296 272L148 419L465 736L148 1053L296 1201L613 884L929 1201L1077 1053L760 736L1077 419L929 272L613 588Z"  />
<glyph unicode="&#xD8;" horiz-adv-x="1720" d="M1429 1251Q1625 1032 1625 731Q1625 409 1404 186T867 -37Q628 -37 441 88L270 -114L143 -8L314 194Q211 299 154 440T97 736Q97 947 199 1123T479 1404T863 1508Q1101 1508 1306 1363L1467 1553L1593 1449L1429 1251ZM493 405L1129 1154Q1016 1234 862 1234Q657 1234 518 1092T379 731Q379 537 493 405ZM1245 1038L620 300Q732 234 867 234Q1065 234 1205 378T1345 733Q1345 902 1245 1038Z"  />
<glyph unicode="&#xD9;" horiz-adv-x="1311" d="M158 1471H439V519Q439 396 460 345T531 264T651 233Q725 233 778 267T852 353T873 554V1471H1154V594Q1154 372 1129 286T1034 120T871 2T657 -37Q497 -37 379 36T209 220T158 594V1471ZM607 1977L846 1585H650L284 1977H607Z"  />
<glyph unicode="&#xDA;" horiz-adv-x="1311" d="M158 1471H439V519Q439 396 460 345T531 264T651 233Q725 233 778 267T852 353T873 554V1471H1154V594Q1154 372 1129 286T1034 120T871 2T657 -37Q497 -37 379 36T209 220T158 594V1471ZM703 1977H1026L660 1585H464L703 1977Z"  />
<glyph unicode="&#xDB;" horiz-adv-x="1311" d="M158 1471H439V519Q439 396 460 345T531 264T651 233Q725 233 778 267T852 353T873 554V1471H1154V594Q1154 372 1129 286T1034 120T871 2T657 -37Q497 -37 379 36T209 220T158 594V1471ZM247 1585L547 1868H766L1064 1585H766L658 1716L547 1585H247Z"  />
<glyph unicode="&#xDC;" horiz-adv-x="1311" d="M158 1471H439V519Q439 396 460 345T531 264T651 233Q725 233 778 267T852 353T873 554V1471H1154V594Q1154 372 1129 286T1034 120T871 2T657 -37Q497 -37 379 36T209 220T158 594V1471ZM434 1871Q494 1871 536 1829T578 1728Q578 1668 536 1626T434 1584Q375 1584 333 1626T291 1728Q291 1787 333 1829T434 1871ZM877 1871Q937 1871 979 1829T1021 1728Q1021 1668 979 1626T877 1584Q818 1584 776 1626T734 1728Q734 1787 776 1829T877 1871Z"  />
<glyph unicode="&#xDD;" horiz-adv-x="1270" d="M63 1471H364L638 943L910 1471H1207L777 637V0H495V637L63 1471ZM683 1977H1006L640 1585H444L683 1977Z"  />
<glyph unicode="&#xDE;" horiz-adv-x="1147" d="M167 1471H447V1159Q703 1159 809 1116T978 973T1041 733Q1041 578 961 477T742 335Q661 311 447 311V0H167V1471ZM447 584H536Q641 584 682 599T746 649T770 733Q770 817 704 857Q656 886 526 886H447V584Z"  />
<glyph unicode="&#xDF;" horiz-adv-x="1229" d="M579 705V949Q682 949 742 997T802 1124Q802 1191 755 1237T638 1283Q572 1283 516 1242T435 1132T410 895V0H137V895Q137 1139 195 1264T371 1462T647 1536Q839 1536 958 1427T1078 1162Q1078 1077 1041 1006T941 892T768 829Q888 808 970 749T1097 605T1141 411Q1141 286 1085 185T926 28T698 -28Q613 -28 530 6V261Q593 228 657 228Q748 228 809 292T871 448Q871 520 836 577T739 668T579 705Z"  />
<glyph unicode="&#xE0;" horiz-adv-x="1352" d="M942 1088H1214V0H942V115Q862 39 782 6T607 -28Q396 -28 242 135T88 542Q88 794 237 955T599 1116Q697 1116 783 1079T942 968V1088ZM655 864Q528 864 444 775T360 545Q360 404 445 313T656 222Q785 222 870 311T955 546Q955 688 870 776T655 864ZM628 1679L867 1287H671L305 1679H628Z"  />
<glyph unicode="&#xE1;" horiz-adv-x="1352" d="M942 1088H1214V0H942V115Q862 39 782 6T607 -28Q396 -28 242 135T88 542Q88 794 237 955T599 1116Q697 1116 783 1079T942 968V1088ZM655 864Q528 864 444 775T360 545Q360 404 445 313T656 222Q785 222 870 311T955 546Q955 688 870 776T655 864ZM724 1679H1047L681 1287H485L724 1679Z"  />
<glyph unicode="&#xE2;" horiz-adv-x="1352" d="M942 1088H1214V0H942V115Q862 39 782 6T607 -28Q396 -28 242 135T88 542Q88 794 237 955T599 1116Q697 1116 783 1079T942 968V1088ZM655 864Q528 864 444 775T360 545Q360 404 445 313T656 222Q785 222 870 311T955 546Q955 688 870 776T655 864ZM267 1287L567 1570H786L1084 1287H786L678 1418L567 1287H267Z"  />
<glyph unicode="&#xE3;" horiz-adv-x="1352" d="M942 1088H1214V0H942V115Q862 39 782 6T607 -28Q396 -28 242 135T88 542Q88 794 237 955T599 1116Q697 1116 783 1079T942 968V1088ZM655 864Q528 864 444 775T360 545Q360 404 445 313T656 222Q785 222 870 311T955 546Q955 688 870 776T655 864ZM369 1291L259 1456Q387 1555 518 1555Q567 1555 686 1521Q767 1499 815 1499Q899 1499 989 1551L1093 1395Q967 1287 849 1287Q786 1287 698 1314Q626 1335 607 1339Q581 1343 545 1343Q457 1343 369 1291Z"  />
<glyph unicode="&#xE4;" horiz-adv-x="1352" d="M942 1088H1214V0H942V115Q862 39 782 6T607 -28Q396 -28 242 135T88 542Q88 794 237 955T599 1116Q697 1116 783 1079T942 968V1088ZM655 864Q528 864 444 775T360 545Q360 404 445 313T656 222Q785 222 870 311T955 546Q955 688 870 776T655 864ZM454 1573Q514 1573 556 1531T598 1430Q598 1370 556 1328T454 1286Q395 1286 353 1328T311 1430Q311 1489 353 1531T454 1573ZM897 1573Q957 1573 999 1531T1041 1430Q1041 1370 999 1328T897 1286Q838 1286 796 1328T754 1430Q754 1489 796 1531T897 1573Z"  />
<glyph unicode="&#xE5;" horiz-adv-x="1352" d="M942 1088H1214V0H942V115Q862 39 782 6T607 -28Q396 -28 242 135T88 542Q88 794 237 955T599 1116Q697 1116 783 1079T942 968V1088ZM655 864Q528 864 444 775T360 545Q360 404 445 313T656 222Q785 222 870 311T955 546Q955 688 870 776T655 864ZM676 1734Q767 1734 831 1669T895 1511Q895 1418 831 1353T676 1287Q586 1287 522 1352T457 1511Q457 1603 521 1668T676 1734ZM676 1605Q642 1605 618 1579T594 1516Q594 1478 618 1452T676 1426Q709 1426 733 1452T758 1516Q758 1553 734 1579T676 1605Z"  />
<glyph unicode="&#xE6;" horiz-adv-x="2212" d="M992 1088H1243V1008Q1379 1116 1565 1116Q1723 1116 1856 1040T2061 828T2134 525L2132 463H1256Q1280 344 1362 277T1574 209Q1649 209 1708 234T1830 319L2060 211Q2006 132 1935 81T1772 1T1572 -28Q1372 -28 1243 78V0H992V138Q913 49 828 11T632 -28Q401 -28 245 134T89 541Q89 782 248 949T629 1116Q750 1116 853 1063Q924 1027 992 946V1088ZM1860 676Q1835 769 1759 826T1574 883Q1464 883 1385 830T1269 676H1860ZM683 868Q548 868 458 776T367 542Q367 403 455 312T680 221Q821 221 907 311T994 550Q994 688 906 778T683 868Z"  />
<glyph unicode="&#xE7;" horiz-adv-x="1311" d="M1203 868L976 743Q912 810 850 836T703 862Q550 862 456 771T361 536Q361 397 452 309T691 221Q874 221 976 346L1191 199Q1016 -28 697 -28Q410 -28 248 142T85 540Q85 698 164 831T384 1040T701 1116Q863 1116 992 1052T1203 868ZM570 16H739L727 -30Q794 -45 832 -88T871 -184Q871 -265 803 -323T614 -381Q516 -381 392 -335L428 -206Q500 -229 569 -229Q620 -229 645 -210T670 -158Q670 -132 651 -117T591 -102L535 -104L570 16Z"  />
<glyph unicode="&#xE8;" horiz-adv-x="1311" d="M1228 465H351Q370 349 452 281T663 212Q816 212 926 319L1156 211Q1070 89 950 31T665 -28Q409 -28 248 133T87 538Q87 787 247 951T650 1116Q907 1116 1068 952T1229 517L1228 465ZM954 680Q927 771 848 828T663 885Q549 885 463 821Q409 781 363 680H954ZM607 1679L846 1287H650L284 1679H607Z"  />
<glyph unicode="&#xE9;" horiz-adv-x="1311" d="M1228 465H351Q370 349 452 281T663 212Q816 212 926 319L1156 211Q1070 89 950 31T665 -28Q409 -28 248 133T87 538Q87 787 247 951T650 1116Q907 1116 1068 952T1229 517L1228 465ZM954 680Q927 771 848 828T663 885Q549 885 463 821Q409 781 363 680H954ZM703 1679H1026L660 1287H464L703 1679Z"  />
<glyph unicode="&#xEA;" horiz-adv-x="1311" d="M1228 465H351Q370 349 452 281T663 212Q816 212 926 319L1156 211Q1070 89 950 31T665 -28Q409 -28 248 133T87 538Q87 787 247 951T650 1116Q907 1116 1068 952T1229 517L1228 465ZM954 680Q927 771 848 828T663 885Q549 885 463 821Q409 781 363 680H954ZM247 1287L547 1570H766L1064 1287H766L658 1418L547 1287H247Z"  />
<glyph unicode="&#xEB;" horiz-adv-x="1311" d="M1228 465H351Q370 349 452 281T663 212Q816 212 926 319L1156 211Q1070 89 950 31T665 -28Q409 -28 248 133T87 538Q87 787 247 951T650 1116Q907 1116 1068 952T1229 517L1228 465ZM954 680Q927 771 848 828T663 885Q549 885 463 821Q409 781 363 680H954ZM434 1573Q494 1573 536 1531T578 1430Q578 1370 536 1328T434 1286Q375 1286 333 1328T291 1430Q291 1489 333 1531T434 1573ZM877 1573Q937 1573 979 1531T1021 1430Q1021 1370 979 1328T877 1286Q818 1286 776 1328T734 1430Q734 1489 776 1531T877 1573Z"  />
<glyph unicode="&#xEC;" horiz-adv-x="491" d="M108 1088H382V0H108V1088ZM199 1679L438 1287H242L-124 1679H199Z"  />
<glyph unicode="&#xED;" horiz-adv-x="491" d="M108 1088H382V0H108V1088ZM295 1679H618L252 1287H56L295 1679Z"  />
<glyph unicode="&#xEE;" horiz-adv-x="491" d="M108 1088H382V0H108V1088ZM-162 1287L138 1570H357L655 1287H357L249 1418L138 1287H-162Z"  />
<glyph unicode="&#xEF;" horiz-adv-x="491" d="M108 1088H382V0H108V1088ZM25 1573Q85 1573 127 1531T169 1430Q169 1370 127 1328T25 1286Q-34 1286 -76 1328T-118 1430Q-118 1489 -76 1531T25 1573ZM468 1573Q528 1573 570 1531T612 1430Q612 1370 570 1328T468 1286Q409 1286 367 1328T325 1430Q325 1489 367 1531T468 1573Z"  />
<glyph unicode="&#xF0;" horiz-adv-x="1311" d="M384 1508H649L731 1448L930 1508L980 1351L876 1317Q1048 1158 1140 966T1232 582Q1232 315 1066 144T653 -28Q418 -28 253 139T87 544Q87 796 273 969Q431 1116 625 1116Q688 1116 753 1088Q726 1152 649 1247L384 1165L333 1324L525 1385Q429 1474 384 1508ZM657 858Q528 858 444 771T360 544Q360 402 442 314T653 226Q782 226 868 315T954 543Q954 681 870 769T657 858Z"  />
<glyph unicode="&#xF1;" horiz-adv-x="1229" d="M138 1088H410V977Q503 1055 578 1085T733 1116Q895 1116 1008 1003Q1103 907 1103 719V0H833V477Q833 672 816 736T755 833T647 867Q564 867 505 812T422 658Q410 607 410 437V0H138V1088ZM308 1291L198 1456Q326 1555 457 1555Q506 1555 625 1521Q706 1499 754 1499Q838 1499 928 1551L1032 1395Q906 1287 788 1287Q725 1287 637 1314Q565 1335 546 1339Q520 1343 484 1343Q396 1343 308 1291Z"  />
<glyph unicode="&#xF2;" horiz-adv-x="1311" d="M649 1116Q803 1116 938 1039T1150 830T1226 545Q1226 391 1150 257T941 48T650 -28Q416 -28 251 138T85 543Q85 798 272 968Q436 1116 649 1116ZM653 859Q526 859 442 771T357 544Q357 402 440 314T652 226Q780 226 865 315T950 544Q950 684 867 771T653 859ZM607 1679L846 1287H650L284 1679H607Z"  />
<glyph unicode="&#xF3;" horiz-adv-x="1311" d="M649 1116Q803 1116 938 1039T1150 830T1226 545Q1226 391 1150 257T941 48T650 -28Q416 -28 251 138T85 543Q85 798 272 968Q436 1116 649 1116ZM653 859Q526 859 442 771T357 544Q357 402 440 314T652 226Q780 226 865 315T950 544Q950 684 867 771T653 859ZM703 1679H1026L660 1287H464L703 1679Z"  />
<glyph unicode="&#xF4;" horiz-adv-x="1311" d="M649 1116Q803 1116 938 1039T1150 830T1226 545Q1226 391 1150 257T941 48T650 -28Q416 -28 251 138T85 543Q85 798 272 968Q436 1116 649 1116ZM653 859Q526 859 442 771T357 544Q357 402 440 314T652 226Q780 226 865 315T950 544Q950 684 867 771T653 859ZM247 1287L547 1570H766L1064 1287H766L658 1418L547 1287H247Z"  />
<glyph unicode="&#xF5;" horiz-adv-x="1311" d="M649 1116Q803 1116 938 1039T1150 830T1226 545Q1226 391 1150 257T941 48T650 -28Q416 -28 251 138T85 543Q85 798 272 968Q436 1116 649 1116ZM653 859Q526 859 442 771T357 544Q357 402 440 314T652 226Q780 226 865 315T950 544Q950 684 867 771T653 859ZM349 1291L239 1456Q367 1555 498 1555Q547 1555 666 1521Q747 1499 795 1499Q879 1499 969 1551L1073 1395Q947 1287 829 1287Q766 1287 678 1314Q606 1335 587 1339Q561 1343 525 1343Q437 1343 349 1291Z"  />
<glyph unicode="&#xF6;" horiz-adv-x="1311" d="M649 1116Q803 1116 938 1039T1150 830T1226 545Q1226 391 1150 257T941 48T650 -28Q416 -28 251 138T85 543Q85 798 272 968Q436 1116 649 1116ZM653 859Q526 859 442 771T357 544Q357 402 440 314T652 226Q780 226 865 315T950 544Q950 684 867 771T653 859ZM433 1573Q493 1573 535 1531T577 1430Q577 1370 535 1328T433 1286Q374 1286 332 1328T290 1430Q290 1489 332 1531T433 1573ZM876 1573Q936 1573 978 1531T1020 1430Q1020 1370 978 1328T876 1286Q817 1286 775 1328T733 1430Q733 1489 775 1531T876 1573Z"  />
<glyph unicode="&#xF7;" horiz-adv-x="1124" d="M401 1326H723V1005H401V1326ZM62 860H1061V610H62V860ZM401 466H723V145H401V466Z"  />
<glyph unicode="&#xF8;" horiz-adv-x="1352" d="M1123 900Q1247 740 1247 545Q1247 391 1171 257T962 48T672 -28Q504 -28 369 60L239 -85L114 22L244 168Q106 327 106 543Q106 797 292 966Q456 1116 671 1116Q849 1116 1002 1013L1128 1153L1251 1043L1123 900ZM423 367L829 820Q761 859 675 859Q548 859 463 771T378 544Q378 450 423 367ZM939 696L544 255Q607 226 675 226Q801 226 886 315T971 544Q971 626 939 696Z"  />
<glyph unicode="&#xF9;" horiz-adv-x="1229" d="M137 1088H413V564Q413 411 434 352T501 259T616 226Q684 226 731 258T802 354Q819 401 819 555V1088H1093V627Q1093 342 1048 237Q993 109 886 41T614 -28Q435 -28 325 52T169 275Q137 374 137 635V1088ZM567 1679L806 1287H610L244 1679H567Z"  />
<glyph unicode="&#xFA;" horiz-adv-x="1229" d="M137 1088H413V564Q413 411 434 352T501 259T616 226Q684 226 731 258T802 354Q819 401 819 555V1088H1093V627Q1093 342 1048 237Q993 109 886 41T614 -28Q435 -28 325 52T169 275Q137 374 137 635V1088ZM663 1679H986L620 1287H424L663 1679Z"  />
<glyph unicode="&#xFB;" horiz-adv-x="1229" d="M137 1088H413V564Q413 411 434 352T501 259T616 226Q684 226 731 258T802 354Q819 401 819 555V1088H1093V627Q1093 342 1048 237Q993 109 886 41T614 -28Q435 -28 325 52T169 275Q137 374 137 635V1088ZM206 1287L506 1570H725L1023 1287H725L617 1418L506 1287H206Z"  />
<glyph unicode="&#xFC;" horiz-adv-x="1229" d="M137 1088H413V564Q413 411 434 352T501 259T616 226Q684 226 731 258T802 354Q819 401 819 555V1088H1093V627Q1093 342 1048 237Q993 109 886 41T614 -28Q435 -28 325 52T169 275Q137 374 137 635V1088ZM393 1573Q453 1573 495 1531T537 1430Q537 1370 495 1328T393 1286Q334 1286 292 1328T250 1430Q250 1489 292 1531T393 1573ZM836 1573Q896 1573 938 1531T980 1430Q980 1370 938 1328T836 1286Q777 1286 735 1328T693 1430Q693 1489 735 1531T836 1573Z"  />
<glyph unicode="&#xFD;" horiz-adv-x="1188" d="M17 1088H296L579 405L891 1088H1171L489 -398H207L431 81L17 1088ZM641 1679H964L598 1287H402L641 1679Z"  />
<glyph unicode="&#xFE;" horiz-adv-x="1352" d="M409 1508V968Q483 1042 569 1079T753 1116Q966 1116 1115 955T1264 542Q1264 299 1110 136T745 -28Q651 -28 570 5T409 115V-398H138V1508H409ZM696 864Q567 864 482 776T397 546Q397 401 482 312T696 222Q821 222 906 313T992 545Q992 685 908 774T696 864Z"  />
<glyph unicode="&#xFF;" horiz-adv-x="1188" d="M17 1088H296L579 405L891 1088H1171L489 -398H207L431 81L17 1088ZM372 1573Q432 1573 474 1531T516 1430Q516 1370 474 1328T372 1286Q313 1286 271 1328T229 1430Q229 1489 271 1531T372 1573ZM815 1573Q875 1573 917 1531T959 1430Q959 1370 917 1328T815 1286Q756 1286 714 1328T672 1430Q672 1489 714 1531T815 1573Z"  />
<glyph unicode="&#x131;" horiz-adv-x="491" d="M108 1088H382V0H108V1088Z"  />
<glyph unicode="&#x152;" horiz-adv-x="2171" d="M1305 1471H2082V1196H1588V929H2082V661H1588V274H2082V0H1305V135Q1205 46 1092 5T840 -37Q630 -37 461 61T193 338T94 733Q94 947 192 1125T466 1405T842 1508Q967 1508 1082 1468T1305 1340V1471ZM835 1239Q649 1239 513 1095T377 736Q377 589 439 475T613 296T855 231Q1043 231 1173 371T1304 727Q1304 872 1243 989T1070 1172T835 1239Z"  />
<glyph unicode="&#x153;" horiz-adv-x="2212" d="M2131 461H1250Q1267 347 1351 278T1565 208Q1706 208 1819 310L2056 202Q1962 85 1841 29T1562 -28Q1269 -28 1110 180Q1026 76 914 24T663 -28Q416 -28 249 138T82 546Q82 779 252 947T663 1116Q755 1116 841 1090T1000 1015Q1054 979 1110 905Q1282 1116 1560 1116Q1732 1116 1863 1037T2063 820T2131 461ZM1860 675Q1829 774 1751 827T1563 881Q1453 881 1370 824T1259 675H1860ZM666 869Q578 869 507 828T396 710T355 542Q355 451 394 375T502 259T659 218Q795 218 882 308T970 546Q970 684 882 776T666 869Z"  />
<glyph unicode="&#x160;" horiz-adv-x="1065" d="M939 1271L732 1088Q623 1240 510 1240Q455 1240 420 1211T385 1144Q385 1107 410 1074Q444 1030 615 885Q775 751 809 716Q894 630 929 552T965 380Q965 199 840 81T514 -37Q357 -37 241 40T41 282L276 424Q382 229 520 229Q592 229 641 271T690 368Q690 418 653 468T490 621Q250 817 180 923T110 1136Q110 1289 226 1398T514 1508Q624 1508 723 1457T939 1271ZM125 1868H425L536 1736L644 1868H942L644 1585H425L125 1868Z"  />
<glyph unicode="&#x161;" horiz-adv-x="901" d="M804 936L635 767Q532 869 448 869Q402 869 376 850T350 801Q350 779 366 761T448 710L548 660Q706 582 765 501T824 311Q824 166 718 69T432 -28Q194 -28 52 158L220 341Q268 285 332 251T447 216Q501 216 534 242T567 302Q567 365 448 425L356 471Q92 604 92 804Q92 933 191 1024T446 1116Q552 1116 645 1070T804 936ZM43 1570H343L454 1438L562 1570H860L562 1287H343L43 1570Z"  />
<glyph unicode="&#x178;" horiz-adv-x="1270" d="M63 1471H364L638 943L910 1471H1207L777 637V0H495V637L63 1471ZM423 1871Q483 1871 525 1829T567 1728Q567 1668 525 1626T423 1584Q364 1584 322 1626T280 1728Q280 1787 322 1829T423 1871ZM866 1871Q926 1871 968 1829T1010 1728Q1010 1668 968 1626T866 1584Q807 1584 765 1626T723 1728Q723 1787 765 1829T866 1871Z"  />
<glyph unicode="&#x17D;" horiz-adv-x="1024" d="M90 1471H980L455 269H946V0H47L570 1194H90V1471ZM105 1953H405L516 1821L624 1953H922L624 1670H405L105 1953Z"  />
<glyph unicode="&#x17E;" horiz-adv-x="942" d="M91 1088H926L436 231H898V0H16L508 857H91V1088ZM64 1570H364L475 1438L583 1570H881L583 1287H364L64 1570Z"  />
<glyph unicode="&#x192;" horiz-adv-x="1147" d="M1078 1453L1045 1214Q963 1273 906 1273Q865 1273 841 1239T800 1083L779 934H1003L969 700H743L637 -56Q617 -202 578 -275T476 -387T339 -426Q281 -426 221 -407T72 -336L106 -94Q201 -168 266 -168Q305 -168 327 -139T363 -7L470 700H243L277 934H504L537 1183Q563 1370 632 1453T831 1536Q896 1536 948 1520T1078 1453Z"  />
<glyph unicode="&#x2C6;" horiz-adv-x="1106" d="M144 1287L444 1570H663L961 1287H663L555 1418L444 1287H144Z"  />
<glyph unicode="&#x2C7;" horiz-adv-x="1106" d="M144 1570H444L555 1438L663 1570H961L663 1287H444L144 1570Z"  />
<glyph unicode="&#x2DA;" horiz-adv-x="737" d="M368 1734Q459 1734 523 1669T587 1511Q587 1418 523 1353T368 1287Q278 1287 214 1352T149 1511Q149 1603 213 1668T368 1734ZM368 1605Q334 1605 310 1579T286 1516Q286 1478 310 1452T368 1426Q401 1426 425 1452T450 1516Q450 1553 426 1579T368 1605Z"  />
<glyph unicode="&#x2DC;" horiz-adv-x="983" d="M185 1291L75 1456Q203 1555 334 1555Q383 1555 502 1521Q583 1499 631 1499Q715 1499 805 1551L909 1395Q783 1287 665 1287Q602 1287 514 1314Q442 1335 423 1339Q397 1343 361 1343Q273 1343 185 1291Z"  />
<glyph unicode="&#x2013;" horiz-adv-x="1024" d="M-12 469V711H1036V469H-12Z"  />
<glyph unicode="&#x2014;" horiz-adv-x="2048" d="M-12 469V711H2060V469H-12Z"  />
<glyph unicode="&#x2018;" horiz-adv-x="573" d="M419 947H167V1086Q167 1217 199 1312T309 1508L407 1431Q370 1377 353 1338T318 1234H419V947Z"  />
<glyph unicode="&#x2019;" horiz-adv-x="573" d="M155 1508H407V1370Q407 1238 375 1143T265 947L167 1024Q204 1078 221 1117T256 1222H155V1508Z"  />
<glyph unicode="&#x201A;" horiz-adv-x="573" d="M155 286H407V148Q407 16 375 -79T265 -274L167 -198Q204 -143 221 -104T256 0H155V286Z"  />
<glyph unicode="&#x201C;" horiz-adv-x="983" d="M415 947H163V1086Q163 1217 195 1312T305 1508L403 1431Q366 1377 349 1338T314 1234H415V947ZM823 947H571V1086Q571 1217 603 1312T713 1508L811 1431Q774 1377 757 1338T722 1234H823V947Z"  />
<glyph unicode="&#x201D;" horiz-adv-x="983" d="M568 1508H820V1370Q820 1238 788 1143T677 947L580 1024Q617 1078 634 1117T668 1222H568V1508ZM160 1508H412V1370Q412 1238 380 1143T270 947L172 1024Q209 1078 226 1117T261 1222H160V1508Z"  />
<glyph unicode="&#x201E;" horiz-adv-x="983" d="M568 286H820V148Q820 16 788 -79T677 -274L580 -198Q617 -143 634 -104T668 0H568V286ZM160 286H412V148Q412 16 380 -79T270 -274L172 -198Q209 -143 226 -104T261 0H160V286Z"  />
<glyph unicode="&#x2020;" horiz-adv-x="1147" d="M442 1508H709L661 960L1114 1009V738L661 793L709 -398H442L492 793L40 738V1009L492 960L442 1508Z"  />
<glyph unicode="&#x2021;" horiz-adv-x="1147" d="M439 1508H708L657 1040L1111 1088V819L657 872L708 548L657 227L1111 282V8L657 61L708 -398H439L488 61L39 8V282L488 227L439 548L488 872L39 819V1088L488 1040L439 1508Z"  />
<glyph unicode="&#x2022;" horiz-adv-x="1229" d="M614 1053Q741 1053 831 963T921 746Q921 618 831 528T614 438Q487 438 397 528T307 746Q307 873 397 963T614 1053Z"  />
<glyph unicode="&#x2026;" horiz-adv-x="2048" d="M1023 285Q1088 285 1134 240T1180 129Q1180 64 1134 18T1023 -28Q958 -28 913 18T867 129Q867 194 912 239T1023 285ZM341 285Q406 285 452 240T498 129Q498 64 452 18T341 -28Q276 -28 230 18T184 129Q184 194 230 239T341 285ZM1706 285Q1771 285 1817 240T1863 129Q1863 64 1817 18T1706 -28Q1641 -28 1595 18T1549 129Q1549 194 1595 239T1706 285Z"  />
<glyph unicode="&#x2030;" horiz-adv-x="2621" d="M1351 1536H1553L387 -100H185L1182 1305Q1092 1290 1013 1283T867 1275Q798 1275 721 1282Q743 1212 743 1155Q743 1009 642 907T394 805Q247 805 144 907T41 1154Q41 1248 87 1328T216 1458T382 1508Q444 1508 553 1484Q746 1442 893 1442Q1026 1442 1140 1465T1351 1536ZM392 1325Q322 1325 273 1276T223 1157Q223 1087 272 1038T392 988Q462 988 511 1037T561 1157Q561 1227 512 1276T392 1325ZM2229 663Q2375 663 2477 560T2580 311Q2580 166 2478 63T2229 -40Q2084 -40 1981 63T1878 311Q1878 457 1981 560T2229 663ZM2228 482Q2158 482 2108 432T2058 312Q2058 242 2108 192T2228 142Q2299 142 2348 192T2398 312Q2398 382 2349 432T2228 482ZM1367 663Q1512 663 1615 560T1718 311Q1718 166 1615 63T1367 -40Q1221 -40 1119 63T1016 311Q1016 457 1118 560T1367 663ZM1366 482Q1295 482 1246 432T1196 312Q1196 242 1245 192T1366 142Q1436 142 1485 192T1535 312Q1535 382 1486 432T1366 482Z"  />
<glyph unicode="&#x2039;" horiz-adv-x="491" d="M210 1088H465L280 540L465 0H210L27 540L210 1088Z"  />
<glyph unicode="&#x203A;" horiz-adv-x="491" d="M282 0H27L212 548L27 1088H282L465 548L282 0Z"  />
<glyph unicode="&#x2044;" horiz-adv-x="328" d="M-235 -37L391 1508H562L-64 -37H-235Z"  />
<glyph unicode="&#x20AC;" horiz-adv-x="1147" d="M449 508Q509 376 631 304T907 231Q1006 231 1110 272V-10Q1018 -37 903 -37Q630 -37 428 107T154 508H10L49 672H127Q125 691 125 737Q125 780 127 799H10L51 963H156Q231 1217 438 1362T907 1507Q1009 1507 1110 1477L1049 1214Q972 1239 901 1239Q757 1239 636 1166T451 963H989L952 799H403Q399 759 399 737Q399 712 403 672H922L883 508H449Z"  />
<glyph unicode="&#x2122;" horiz-adv-x="2048" d="M1905 1471V631H1729V1322L1454 631H1366L1100 1322V631H924V1471H1191L1410 931L1640 1471H1905ZM809 1471V1324H547V631H365V1324H101V1471H809Z"  />


</font>
</defs>
</svg>
